  0
SECTION
  2
HEADER
  9
$ACADVER
  1
AC1015
  9
$ACADMAINTVER
 70
     6
  9
$DWGCODEPAGE
  3
ANSI_1252
  9
$INSBASE
 10
0.0
 20
0.0
 30
0.0
  9
$EXTMIN
 10
-210.0000000000001
 20
0.0
 30
0.0
  9
$EXTMAX
 10
0.0
 20
297.0000000000001
 30
0.0
  9
$LIMMIN
 10
0.0
 20
0.0
  9
$LIMMAX
 10
12.0
 20
9.0
  9
$ORTHOMODE
 70
     0
  9
$REGENMODE
 70
     1
  9
$FILLMODE
 70
     1
  9
$QTEXTMODE
 70
     0
  9
$MIRRTEXT
 70
     1
  9
$LTSCALE
 40
1.0
  9
$ATTMODE
 70
     1
  9
$TEXTSIZE
 40
0.2
  9
$TRACEWID
 40
0.05
  9
$TEXTSTYLE
  7
Standard
  9
$CLAYER
  8
0
  9
$CELTYPE
  6
ByLayer
  9
$CECOLOR
 62
   256
  9
$CELTSCALE
 40
1.0
  9
$DISPSILH
 70
     0
  9
$DIMSCALE
 40
1.0
  9
$DIMASZ
 40
0.18
  9
$DIMEXO
 40
0.0625
  9
$DIMDLI
 40
0.38
  9
$DIMRND
 40
0.0
  9
$DIMDLE
 40
0.0
  9
$DIMEXE
 40
0.18
  9
$DIMTP
 40
0.0
  9
$DIMTM
 40
0.0
  9
$DIMTXT
 40
0.18
  9
$DIMCEN
 40
0.09
  9
$DIMTSZ
 40
0.0
  9
$DIMTOL
 70
     0
  9
$DIMLIM
 70
     0
  9
$DIMTIH
 70
     1
  9
$DIMTOH
 70
     1
  9
$DIMSE1
 70
     0
  9
$DIMSE2
 70
     0
  9
$DIMTAD
 70
     0
  9
$DIMZIN
 70
     0
  9
$DIMBLK
  1

  9
$DIMASO
 70
     1
  9
$DIMSHO
 70
     1
  9
$DIMPOST
  1

  9
$DIMAPOST
  1

  9
$DIMALT
 70
     0
  9
$DIMALTD
 70
     2
  9
$DIMALTF
 40
25.4
  9
$DIMLFAC
 40
1.0
  9
$DIMTOFL
 70
     0
  9
$DIMTVP
 40
0.0
  9
$DIMTIX
 70
     0
  9
$DIMSOXD
 70
     0
  9
$DIMSAH
 70
     0
  9
$DIMBLK1
  1

  9
$DIMBLK2
  1

  9
$DIMSTYLE
  2
Standard
  9
$DIMCLRD
 70
     0
  9
$DIMCLRE
 70
     0
  9
$DIMCLRT
 70
     0
  9
$DIMTFAC
 40
1.0
  9
$DIMGAP
 40
0.09
  9
$DIMJUST
 70
     0
  9
$DIMSD1
 70
     0
  9
$DIMSD2
 70
     0
  9
$DIMTOLJ
 70
     1
  9
$DIMTZIN
 70
     0
  9
$DIMALTZ
 70
     0
  9
$DIMALTTZ
 70
     0
  9
$DIMUPT
 70
     0
  9
$DIMDEC
 70
     4
  9
$DIMTDEC
 70
     4
  9
$DIMALTU
 70
     2
  9
$DIMALTTD
 70
     2
  9
$DIMTXSTY
  7
Standard
  9
$DIMAUNIT
 70
     0
  9
$DIMADEC
 70
     0
  9
$DIMALTRND
 40
0.0
  9
$DIMAZIN
 70
     0
  9
$DIMDSEP
 70
    46
  9
$DIMATFIT
 70
     3
  9
$DIMFRAC
 70
     0
  9
$DIMLDRBLK
  1

  9
$DIMLUNIT
 70
     2
  9
$DIMLWD
 70
    -2
  9
$DIMLWE
 70
    -2
  9
$DIMTMOVE
 70
     0
  9
$LUNITS
 70
     2
  9
$LUPREC
 70
     4
  9
$SKETCHINC
 40
0.1
  9
$FILLETRAD
 40
0.5
  9
$AUNITS
 70
     0
  9
$AUPREC
 70
     0
  9
$MENU
  1
.
  9
$ELEVATION
 40
0.0
  9
$PELEVATION
 40
0.0
  9
$THICKNESS
 40
0.0
  9
$LIMCHECK
 70
     0
  9
$CHAMFERA
 40
0.5
  9
$CHAMFERB
 40
0.5
  9
$CHAMFERC
 40
1.0
  9
$CHAMFERD
 40
0.0
  9
$SKPOLY
 70
     0
  9
$TDCREATE
 40
2456997.491307905
  9
$TDUCREATE
 40
2456997.449641238
  9
$TDUPDATE
 40
2456997.491308264
  9
$TDUUPDATE
 40
2456997.449641597
  9
$TDINDWG
 40
0.0000000116
  9
$TDUSRTIMER
 40
0.0000000116
  9
$USRTIMER
 70
     1
  9
$ANGBASE
 50
0.0
  9
$ANGDIR
 70
     0
  9
$PDMODE
 70
     0
  9
$PDSIZE
 40
0.0
  9
$PLINEWID
 40
0.0
  9
$SPLFRAME
 70
     0
  9
$SPLINETYPE
 70
     6
  9
$SPLINESEGS
 70
     8
  9
$HANDSEED
  5
2B3
  9
$SURFTAB1
 70
     6
  9
$SURFTAB2
 70
     6
  9
$SURFTYPE
 70
     6
  9
$SURFU
 70
     6
  9
$SURFV
 70
     6
  9
$UCSBASE
  2

  9
$UCSNAME
  2

  9
$UCSORG
 10
0.0
 20
0.0
 30
0.0
  9
$UCSXDIR
 10
1.0
 20
0.0
 30
0.0
  9
$UCSYDIR
 10
0.0
 20
1.0
 30
0.0
  9
$UCSORTHOREF
  2

  9
$UCSORTHOVIEW
 70
     0
  9
$UCSORGTOP
 10
0.0
 20
0.0
 30
0.0
  9
$UCSORGBOTTOM
 10
0.0
 20
0.0
 30
0.0
  9
$UCSORGLEFT
 10
0.0
 20
0.0
 30
0.0
  9
$UCSORGRIGHT
 10
0.0
 20
0.0
 30
0.0
  9
$UCSORGFRONT
 10
0.0
 20
0.0
 30
0.0
  9
$UCSORGBACK
 10
0.0
 20
0.0
 30
0.0
  9
$PUCSBASE
  2

  9
$PUCSNAME
  2

  9
$PUCSORG
 10
0.0
 20
0.0
 30
0.0
  9
$PUCSXDIR
 10
1.0
 20
0.0
 30
0.0
  9
$PUCSYDIR
 10
0.0
 20
1.0
 30
0.0
  9
$PUCSORTHOREF
  2

  9
$PUCSORTHOVIEW
 70
     0
  9
$PUCSORGTOP
 10
0.0
 20
0.0
 30
0.0
  9
$PUCSORGBOTTOM
 10
0.0
 20
0.0
 30
0.0
  9
$PUCSORGLEFT
 10
0.0
 20
0.0
 30
0.0
  9
$PUCSORGRIGHT
 10
0.0
 20
0.0
 30
0.0
  9
$PUCSORGFRONT
 10
0.0
 20
0.0
 30
0.0
  9
$PUCSORGBACK
 10
0.0
 20
0.0
 30
0.0
  9
$USERI1
 70
     0
  9
$USERI2
 70
     0
  9
$USERI3
 70
     0
  9
$USERI4
 70
     0
  9
$USERI5
 70
     0
  9
$USERR1
 40
18.1
  9
$USERR2
 40
0.0
  9
$USERR3
 40
0.0
  9
$USERR4
 40
0.0
  9
$USERR5
 40
0.0
  9
$WORLDVIEW
 70
     1
  9
$SHADEDGE
 70
     3
  9
$SHADEDIF
 70
    70
  9
$TILEMODE
 70
     1
  9
$MAXACTVP
 70
    64
  9
$PINSBASE
 10
0.0
 20
0.0
 30
0.0
  9
$PLIMCHECK
 70
     0
  9
$PEXTMIN
 10
1.00000000000000E+20
 20
1.00000000000000E+20
 30
1.00000000000000E+20
  9
$PEXTMAX
 10
-1.00000000000000E+20
 20
-1.00000000000000E+20
 30
-1.00000000000000E+20
  9
$PLIMMIN
 10
0.0
 20
0.0
  9
$PLIMMAX
 10
12.0
 20
9.0
  9
$UNITMODE
 70
     0
  9
$VISRETAIN
 70
     1
  9
$PLINEGEN
 70
     0
  9
$PSLTSCALE
 70
     1
  9
$TREEDEPTH
 70
  3020
  9
$CMLSTYLE
  2
Standard
  9
$CMLJUST
 70
     0
  9
$CMLSCALE
 40
1.0
  9
$PROXYGRAPHICS
 70
     1
  9
$MEASUREMENT
 70
     1
  9
$CELWEIGHT
370
    -1
  9
$ENDCAPS
280
     0
  9
$JOINSTYLE
280
     0
  9
$LWDISPLAY
290
     0
  9
$INSUNITS
 70
     4
  9
$HYPERLINKBASE
  1

  9
$STYLESHEET
  1

  9
$XEDIT
290
     1
  9
$CEPSNTYPE
380
     0
  9
$PSTYLEMODE
290
     1
  9
$FINGERPRINTGUID
  2
{200F63D8-2386-4CCD-A68D-5EDC57B70416}
  9
$VERSIONGUID
  2
{FAEB1C32-E019-11D5-929B-00C0DF256EC4}
  9
$EXTNAMES
290
     1
  9
$PSVPSCALE
 40
0.0
  9
$OLESTARTUP
290
     0
  0
ENDSEC
  0
SECTION
  2
CLASSES
  0
CLASS
  1
ACDBDICTIONARYWDFLT
  2
AcDbDictionaryWithDefault
  3
ObjectDBX Classes
 90
        0
280
     0
281
     0
  0
CLASS
  1
VISUALSTYLE
  2
AcDbVisualStyle
  3
ObjectDBX Classes
 90
     4095
280
     0
281
     0
  0
CLASS
  1
MATERIAL
  2
AcDbMaterial
  3
ObjectDBX Classes
 90
     1153
280
     0
281
     0
  0
CLASS
  1
DICTIONARYVAR
  2
AcDbDictionaryVar
  3
ObjectDBX Classes
 90
        0
280
     0
281
     0
  0
CLASS
  1
ACDBPLACEHOLDER
  2
AcDbPlaceHolder
  3
ObjectDBX Classes
 90
        0
280
     0
281
     0
  0
CLASS
  1
LAYOUT
  2
AcDbLayout
  3
ObjectDBX Classes
 90
        0
280
     0
281
     0
  0
ENDSEC
  0
SECTION
  2
TABLES
  0
TABLE
  2
VPORT
  5
8
330
0
100
AcDbSymbolTable
 70
     1
  0
VPORT
  5
29
330
8
100
AcDbSymbolTableRecord
100
AcDbViewportTableRecord
  2
*Active
 70
     0
 10
0.0
 20
0.0
 11
1.0
 21
1.0
 12
-105.0000000000001
 22
148.5000000000001
 13
0.0
 23
0.0
 14
0.5
 24
0.5
 15
0.5
 25
0.5
 16
0.0
 26
0.0
 36
1.0
 17
0.0
 27
0.0
 37
0.0
 40
326.7000000000002
 41
1.60267857142857
 42
50.0
 43
0.0
 44
0.0
 50
0.0
 51
0.0
 71
     0
 72
   100
 73
     1
 74
     3
 75
     0
 76
     0
 77
     0
 78
     0
281
     0
 65
     1
110
0.0
120
0.0
130
0.0
111
1.0
121
0.0
131
0.0
112
0.0
122
1.0
132
0.0
 79
     0
146
0.0
  0
ENDTAB
  0
TABLE
  2
LTYPE
  5
5
330
0
100
AcDbSymbolTable
 70
     8
  0
LTYPE
  5
14
330
5
100
AcDbSymbolTableRecord
100
AcDbLinetypeTableRecord
  2
ByBlock
 70
     0
  3

 72
    65
 73
     0
 40
0.0
  0
LTYPE
  5
15
330
5
100
AcDbSymbolTableRecord
100
AcDbLinetypeTableRecord
  2
ByLayer
 70
     0
  3

 72
    65
 73
     0
 40
0.0
  0
LTYPE
  5
16
330
5
100
AcDbSymbolTableRecord
100
AcDbLinetypeTableRecord
  2
Continuous
 70
     0
  3
Solid line
 72
    65
 73
     0
 40
0.0
  0
LTYPE
  5
3F
330
5
100
AcDbSymbolTableRecord
100
AcDbLinetypeTableRecord
  2
DASHED
 70
     0
  3
Dashed
 72
    65
 73
     2
 40
15.0
 49
7.0
 74
     0
 49
-8.0
 74
     0
  0
LTYPE
  5
40
330
5
100
AcDbSymbolTableRecord
100
AcDbLinetypeTableRecord
  2
DOTTED
 70
     0
  3
Dotted
 72
    65
 73
     2
 40
1.0
 49
0.0
 74
     0
 49
-1.0
 74
     0
  0
LTYPE
  5
41
330
5
100
AcDbSymbolTableRecord
100
AcDbLinetypeTableRecord
  2
DOT_CENTER
 70
     0
  3
Dot_Center
 72
    65
 73
     4
 40
14.0
 49
12.0
 74
     0
 49
-1.0
 74
     0
 49
0.0
 74
     0
 49
-1.0
 74
     0
  0
LTYPE
  5
42
330
5
100
AcDbSymbolTableRecord
100
AcDbLinetypeTableRecord
  2
LONG_DASHED
 70
     0
  3
Long_Dashed
 72
    65
 73
     2
 40
15.0
 49
10.0
 74
     0
 49
-5.0
 74
     0
  0
LTYPE
  5
43
330
5
100
AcDbSymbolTableRecord
100
AcDbLinetypeTableRecord
  2
DASH_CENTER
 70
     0
  3
Dash_Center
 72
    65
 73
     4
 40
14.0
 49
11.0
 74
     0
 49
-1.0
 74
     0
 49
1.0
 74
     0
 49
-1.0
 74
     0
  0
LTYPE
  5
44
330
5
100
AcDbSymbolTableRecord
100
AcDbLinetypeTableRecord
  2
PHANTOM
 70
     0
  3
Phantom
 72
    65
 73
     6
 40
13.0
 49
10.0
 74
     0
 49
-1.0
 74
     0
 49
0.0
 74
     0
 49
-1.0
 74
     0
 49
0.0
 74
     0
 49
-1.0
 74
     0
  0
LTYPE
  5
45
330
5
100
AcDbSymbolTableRecord
100
AcDbLinetypeTableRecord
  2
CENTER_DASH_DASH
 70
     0
  3
Center_Dash_Dash
 72
    65
 73
     6
 40
14.0
 49
9.0
 74
     0
 49
-1.0
 74
     0
 49
1.0
 74
     0
 49
-1.0
 74
     0
 49
1.0
 74
     0
 49
-1.0
 74
     0
  0
ENDTAB
  0
TABLE
  2
LAYER
  5
2
330
0
100
AcDbSymbolTable
 70
     2
  0
LAYER
  5
10
330
2
100
AcDbSymbolTableRecord
100
AcDbLayerTableRecord
  2
0
 70
     0
 62
     7
  6
Continuous
370
    -3
390
F
  0
LAYER
  5
46
330
2
100
AcDbSymbolTableRecord
100
AcDbLayerTableRecord
  2
1
 70
     0
 62
     7
  6
Continuous
370
    -3
390
F
  0
ENDTAB
  0
TABLE
  2
STYLE
  5
3
330
0
100
AcDbSymbolTable
 70
     3
  0
STYLE
  5
11
330
3
100
AcDbSymbolTableRecord
100
AcDbTextStyleTableRecord
  2
Standard
 70
     0
 40
0.0
 41
1.0
 50
0.0
 71
     0
 42
0.2
  3
txt
  4

  0
STYLE
  5
259
330
3
100
AcDbSymbolTableRecord
100
AcDbTextStyleTableRecord
  2
CONVERTER_11
 70
     0
 40
0.0
 41
1.2
 50
0.0
 71
     0
 42
0.2
  3
ARIAL.TTF
  4

  0
STYLE
  5
268
330
3
100
AcDbSymbolTableRecord
100
AcDbTextStyleTableRecord
  2
CONVERTER_12
 70
     0
 40
0.0
 41
0.95
 50
0.0
 71
     0
 42
0.2
  3
simplex.shx
  4

  0
ENDTAB
  0
TABLE
  2
VIEW
  5
6
330
0
100
AcDbSymbolTable
 70
     0
  0
ENDTAB
  0
TABLE
  2
UCS
  5
7
330
0
100
AcDbSymbolTable
 70
     0
  0
ENDTAB
  0
TABLE
  2
APPID
  5
9
330
0
100
AcDbSymbolTable
 70
     1
  0
APPID
  5
12
330
9
100
AcDbSymbolTableRecord
100
AcDbRegAppTableRecord
  2
ACAD
 70
     0
  0
ENDTAB
  0
TABLE
  2
DIMSTYLE
  5
A
330
0
100
AcDbSymbolTable
 70
     4
100
AcDbDimStyleTable
  0
DIMSTYLE
105
27
330
A
100
AcDbSymbolTableRecord
100
AcDbDimStyleTableRecord
  2
Standard
 70
     0
178
     0
340
11
  0
DIMSTYLE
105
26C
102
{ACAD_REACTORS
330
26D
102
}
330
A
100
AcDbSymbolTableRecord
100
AcDbDimStyleTableRecord
  2
ME10_DIM_10
 70
     0
 41
3.0
 42
0.5
 44
1.0
 73
     0
 74
     0
 77
     1
 78
     8
140
3.0
147
2.0
172
     1
173
     1
174
     1
175
     1
176
     2
177
     2
271
     2
178
     4
271
     2
340
268
  0
DIMSTYLE
105
277
102
{ACAD_REACTORS
330
278
102
}
330
A
100
AcDbSymbolTableRecord
100
AcDbDimStyleTableRecord
  2
ME10_DIM_11
 70
     0
 41
3.0
 42
0.5
 44
1.0
 73
     0
 74
     0
 77
     1
 78
     8
140
3.0
147
2.0
172
     1
173
     1
174
     1
175
     1
176
     2
177
     2
271
     2
178
     4
271
     2
340
268
  0
DIMSTYLE
105
282
102
{ACAD_REACTORS
330
283
102
}
330
A
100
AcDbSymbolTableRecord
100
AcDbDimStyleTableRecord
  2
ME10_DIM_12
 70
     0
 41
3.0
 42
0.5
 44
1.0
 73
     0
 74
     0
 77
     1
 78
     8
140
3.0
147
2.0
172
     1
173
     1
174
     1
175
     1
176
     2
177
     2
271
     2
178
     4
271
     2
340
268
  0
ENDTAB
  0
TABLE
  2
BLOCK_RECORD
  5
1
330
0
100
AcDbSymbolTable
 70
     4
  0
BLOCK_RECORD
  5
1F
330
1
100
AcDbSymbolTableRecord
100
AcDbBlockTableRecord
  2
*Model_Space
340
22
  0
BLOCK_RECORD
  5
1B
330
1
100
AcDbSymbolTableRecord
100
AcDbBlockTableRecord
  2
*Paper_Space
340
1E
  0
BLOCK_RECORD
  5
23
330
1
100
AcDbSymbolTableRecord
100
AcDbBlockTableRecord
  2
*Paper_Space0
340
26
  0
BLOCK_RECORD
  5
262
330
1
100
AcDbSymbolTableRecord
100
AcDbBlockTableRecord
  2
*D1
340
0
  0
BLOCK_RECORD
  5
26E
330
1
100
AcDbSymbolTableRecord
100
AcDbBlockTableRecord
  2
*D2
340
0
  0
BLOCK_RECORD
  5
279
330
1
100
AcDbSymbolTableRecord
100
AcDbBlockTableRecord
  2
*D3
340
0
  0
ENDTAB
  0
ENDSEC
  0
SECTION
  2
BLOCKS
  0
BLOCK
  5
20
330
1F
100
AcDbEntity
  8
0
100
AcDbBlockBegin
  2
*Model_Space
 70
     0
 10
0.0
 20
0.0
 30
0.0
  3
*Model_Space
  1

  0
ENDBLK
  5
21
330
1F
100
AcDbEntity
  8
0
100
AcDbBlockEnd
  0
BLOCK
  5
1C
330
1B
100
AcDbEntity
 67
     1
  8
0
100
AcDbBlockBegin
  2
*Paper_Space
 70
     0
 10
0.0
 20
0.0
 30
0.0
  3
*Paper_Space
  1

  0
ENDBLK
  5
1D
330
1B
100
AcDbEntity
 67
     1
  8
0
100
AcDbBlockEnd
  0
BLOCK
  5
24
330
23
100
AcDbEntity
  8
0
100
AcDbBlockBegin
  2
*Paper_Space0
 70
     0
 10
0.0
 20
0.0
 30
0.0
  3
*Paper_Space0
  1

  0
ENDBLK
  5
25
330
23
100
AcDbEntity
  8
0
100
AcDbBlockEnd
  0
BLOCK
  5
26A
330
262
100
AcDbEntity
  8
0
100
AcDbBlockBegin
  2
*D1
 70
     1
 10
0.0
 20
0.0
 30
0.0
  3
*D1
  1

  0
LINE
  5
263
330
262
100
AcDbEntity
  8
1
  6
Continuous
 62
     2
100
AcDbLine
 10
-148.9914811306253
 20
189.013004012106
 30
0.0
 11
-134.2914811306253
 21
189.013004012106
 31
0.0
  0
LINE
  5
264
330
262
100
AcDbEntity
  8
1
  6
Continuous
 62
     2
100
AcDbLine
 10
-148.9914811306253
 20
174.513004012106
 30
0.0
 11
-148.9914811306253
 21
190.013004012106
 31
0.0
  0
LINE
  5
265
330
262
100
AcDbEntity
  8
1
  6
Continuous
 62
     2
100
AcDbLine
 10
-134.2914811306253
 20
174.513004012106
 30
0.0
 11
-134.2914811306253
 21
190.013004012106
 31
0.0
  0
SOLID
  5
266
330
262
100
AcDbEntity
  8
1
 62
     2
100
AcDbTrace
 10
-145.9914811306253
 20
189.4079615048682
 30
0.0
 11
-145.9914811306253
 21
188.6180465193438
 31
0.0
 12
-148.9914811306253
 22
189.013004012106
 32
0.0
 13
-148.9914811306253
 23
189.013004012106
 33
0.0
  0
SOLID
  5
267
330
262
100
AcDbEntity
  8
1
 62
     2
100
AcDbTrace
 10
-137.2914811306253
 20
188.6180465193438
 30
0.0
 11
-137.2914811306253
 21
189.4079615048682
 31
0.0
 12
-134.2914811306253
 22
189.013004012106
 32
0.0
 13
-134.2914811306253
 23
189.013004012106
 33
0.0
  0
MTEXT
  5
269
330
262
100
AcDbEntity
  8
1
 62
     4
100
AcDbMText
 10
-145.3164811306253
 20
191.313004012106
 30
0.0
 40
3.0
 41
0.0
 71
     7
 72
     1
  1
14,7
  7
CONVERTER_12
 11
0.9999999999970619
 21
2.424068405545306E-6
 31
0.0
 73
     1
 44
0.60024009603842
  0
ENDBLK
  5
26B
330
262
100
AcDbEntity
  8
0
100
AcDbBlockEnd
  0
BLOCK
  5
275
330
26E
100
AcDbEntity
  8
0
100
AcDbBlockBegin
  2
*D2
 70
     1
 10
0.0
 20
0.0
 30
0.0
  3
*D2
  1

  0
LINE
  5
26F
330
26E
100
AcDbEntity
  8
1
  6
Continuous
 62
     2
100
AcDbLine
 10
-81.81937024029517
 20
189.013004012106
 30
0.0
 11
-51.81937024029477
 21
189.013004012106
 31
0.0
  0
LINE
  5
270
330
26E
100
AcDbEntity
  8
1
  6
Continuous
 62
     2
100
AcDbLine
 10
-81.81937024029517
 20
174.513004012106
 30
0.0
 11
-81.81937024029517
 21
190.013004012106
 31
0.0
  0
LINE
  5
271
330
26E
100
AcDbEntity
  8
1
  6
Continuous
 62
     2
100
AcDbLine
 10
-51.81937024029477
 20
174.5130040121063
 30
0.0
 11
-51.81937024029477
 21
190.013004012106
 31
0.0
  0
SOLID
  5
272
330
26E
100
AcDbEntity
  8
1
 62
     2
100
AcDbTrace
 10
-78.81937024029517
 20
189.4079615048682
 30
0.0
 11
-78.81937024029517
 21
188.6180465193438
 31
0.0
 12
-81.81937024029517
 22
189.013004012106
 32
0.0
 13
-81.81937024029517
 23
189.013004012106
 33
0.0
  0
SOLID
  5
273
330
26E
100
AcDbEntity
  8
1
 62
     2
100
AcDbTrace
 10
-54.81937024029477
 20
188.6180465193438
 30
0.0
 11
-54.81937024029477
 21
189.4079615048682
 31
0.0
 12
-51.81937024029477
 22
189.013004012106
 32
0.0
 13
-51.81937024029477
 23
189.013004012106
 33
0.0
  0
MTEXT
  5
274
330
26E
100
AcDbEntity
  8
1
 62
     4
100
AcDbMText
 10
-69.06937024029497
 20
191.013004012106
 30
0.0
 40
3.0
 41
0.0
 71
     7
 72
     1
  1
30
  7
CONVERTER_12
 11
0.9999999999970619
 21
2.424068405545306E-6
 31
0.0
 73
     1
 44
0.60024009603842
  0
ENDBLK
  5
276
330
26E
100
AcDbEntity
  8
0
100
AcDbBlockEnd
  0
BLOCK
  5
280
330
279
100
AcDbEntity
  8
0
100
AcDbBlockBegin
  2
*D3
 70
     1
 10
0.0
 20
0.0
 30
0.0
  3
*D3
  1

  0
LINE
  5
27A
330
279
100
AcDbEntity
  8
1
  6
Continuous
 62
     2
100
AcDbLine
 10
-36.81937024029471
 20
174.0130040121064
 30
0.0
 11
-36.81937024029471
 21
154.0130040121063
 31
0.0
  0
LINE
  5
27B
330
279
100
AcDbEntity
  8
1
  6
Continuous
 62
     2
100
AcDbLine
 10
-51.31937024029477
 20
174.0130040121064
 30
0.0
 11
-35.81937024029471
 21
174.0130040121064
 31
0.0
  0
LINE
  5
27C
330
279
100
AcDbEntity
  8
1
  6
Continuous
 62
     2
100
AcDbLine
 10
-49.31937024029489
 20
154.0130040121063
 30
0.0
 11
-35.81937024029471
 21
154.0130040121063
 31
0.0
  0
SOLID
  5
27D
330
279
100
AcDbEntity
  8
1
 62
     2
100
AcDbTrace
 10
-36.42441274753252
 20
171.0130040121064
 30
0.0
 11
-37.2143277330569
 21
171.0130040121064
 31
0.0
 12
-36.81937024029471
 22
174.0130040121064
 32
0.0
 13
-36.81937024029471
 23
174.0130040121064
 33
0.0
  0
SOLID
  5
27E
330
279
100
AcDbEntity
  8
1
 62
     2
100
AcDbTrace
 10
-37.2143277330569
 20
157.0130040121063
 30
0.0
 11
-36.42441274753252
 21
157.0130040121063
 31
0.0
 12
-36.81937024029471
 22
154.0130040121063
 32
0.0
 13
-36.81937024029471
 23
154.0130040121063
 33
0.0
  0
MTEXT
  5
27F
330
279
100
AcDbEntity
  8
1
 62
     4
100
AcDbMText
 10
-38.81937024029471
 20
161.7630040121063
 30
0.0
 40
3.0
 41
0.0
 71
     7
 72
     1
  1
20
  7
CONVERTER_12
 11
0.0
 21
1.0
 31
0.0
 73
     1
 44
0.60024009603842
  0
ENDBLK
  5
281
330
279
100
AcDbEntity
  8
0
100
AcDbBlockEnd
  0
ENDSEC
  0
SECTION
  2
ENTITIES
  0
LINE
  5
47
330
1F
100
AcDbEntity
  8
1
  6
Continuous
 62
     7
100
AcDbLine
 10
-189.0
 20
20.0
 30
0.0
 11
-189.0
 21
4.99999999999989
 31
0.0
  0
LINE
  5
48
330
1F
100
AcDbEntity
  8
1
  6
Continuous
 62
     7
100
AcDbLine
 10
-49.0
 20
20.0
 30
0.0
 11
-49.0
 21
5.0
 31
0.0
  0
LINE
  5
49
330
1F
100
AcDbEntity
  8
1
  6
Continuous
 62
     7
100
AcDbLine
 10
-31.6473986225146
 20
20.0
 30
0.0
 11
-31.6473986225146
 21
5.0
 31
0.0
  0
LINE
  5
4A
330
1F
100
AcDbEntity
  8
1
  6
Continuous
 62
     7
100
AcDbLine
 10
-159.0
 20
20.0
 30
0.0
 11
-159.0
 21
5.0
 31
0.0
  0
LINE
  5
4B
330
1F
100
AcDbEntity
  8
1
  6
Continuous
 62
     7
100
AcDbLine
 10
-189.0
 20
12.5
 30
0.0
 11
-159.0
 21
12.5
 31
0.0
  0
LINE
  5
4C
330
1F
100
AcDbEntity
  8
1
  6
Continuous
 62
     7
100
AcDbLine
 10
-210.0000000000001
 20
148.4999999999998
 30
0.0
 11
-195.0000000000001
 21
148.4999999999998
 31
0.0
  0
LINE
  5
4D
330
1F
100
AcDbEntity
  8
1
  6
Continuous
 62
     7
100
AcDbLine
 10
0.0
 20
0.0
 30
0.0
 11
0.0
 21
297.0000000000001
 31
0.0
  0
LINE
  5
4E
330
1F
100
AcDbEntity
  8
1
  6
Continuous
 62
     7
100
AcDbLine
 10
-210.0000000000001
 20
0.0
 30
0.0
 11
0.0
 21
0.0
 31
0.0
  0
LINE
  5
4F
330
1F
100
AcDbEntity
  8
1
  6
Continuous
 62
     7
100
AcDbLine
 10
-210.0000000000001
 20
297.0000000000001
 30
0.0
 11
-210.0000000000001
 21
0.0
 31
0.0
  0
LINE
  5
50
330
1F
100
AcDbEntity
  8
1
  6
Continuous
 62
     7
100
AcDbLine
 10
-5.0
 20
4.99999999999989
 30
0.0
 11
-5.0
 21
292.0000000000001
 31
0.0
  0
LINE
  5
51
330
1F
100
AcDbEntity
  8
1
  6
Continuous
 62
     7
100
AcDbLine
 10
-5.0
 20
292.0000000000001
 30
0.0
 11
-189.0
 21
292.0000000000001
 31
0.0
  0
LINE
  5
52
330
1F
100
AcDbEntity
  8
1
  6
Continuous
 62
     7
100
AcDbLine
 10
-189.0
 20
292.0000000000001
 30
0.0
 11
-189.0
 21
4.99999999999989
 31
0.0
  0
LINE
  5
53
102
{ACAD_REACTORS
330
287
102
}
330
1F
100
AcDbEntity
  8
1
  6
Continuous
 62
     7
100
AcDbLine
 10
-15.99036597792389
 20
10.07749983983257
 30
0.0
 11
-15.99036597792389
 21
14.92250016016737
 31
0.0
  0
LINE
  5
54
102
{ACAD_REACTORS
330
284
102
}
330
1F
100
AcDbEntity
  8
1
  6
Continuous
 62
     7
100
AcDbLine
 10
-17.32369931125729
 20
9.3082690706018
 30
0.0
 11
-17.32369931125729
 21
14.23205080756878
 31
0.0
  0
LINE
  5
55
102
{ACAD_REACTORS
330
284
102
}
330
1F
100
AcDbEntity
  8
1
  6
Continuous
 62
     7
100
AcDbLine
 10
-17.32369931125729
 20
14.23205080756878
 30
0.0
 11
-18.1793617439599
 21
12.75
 31
0.0
  0
LINE
  5
56
102
{ACAD_REACTORS
330
284
102
}
330
1F
100
AcDbEntity
  8
1
  6
Continuous
 62
     7
100
AcDbLine
 10
-18.46803687855478
 20
12.75
 30
0.0
 11
-19.32369931125729
 21
14.23205080756878
 31
0.0
  0
LINE
  5
57
102
{ACAD_REACTORS
330
284
102
}
330
1F
100
AcDbEntity
  8
1
  6
Continuous
 62
     7
100
AcDbLine
 10
-19.32369931125729
 20
14.23205080756878
 30
0.0
 11
-19.32369931125729
 21
10.84758507263291
 31
0.0
  0
LINE
  5
58
330
1F
100
AcDbEntity
  8
1
  6
Continuous
 62
     7
100
AcDbLine
 10
-26.74013458639891
 20
12.64436426434128
 30
0.0
 11
-18.32369931125729
 21
17.5
 31
0.0
  0
LINE
  5
59
330
1F
100
AcDbEntity
  8
1
  6
Continuous
 62
     7
100
AcDbLine
 10
-18.32369931125729
 20
17.5
 30
0.0
 11
-9.90726403611589
 21
12.64436426434128
 31
0.0
  0
LINE
  5
5A
330
1F
100
AcDbEntity
  8
1
  6
Continuous
 62
     7
100
AcDbLine
 10
-9.90726403611589
 20
12.35563573565861
 30
0.0
 11
-18.32369931125729
 21
7.5
 31
0.0
  0
LINE
  5
5B
330
1F
100
AcDbEntity
  8
1
  6
Continuous
 62
     7
100
AcDbLine
 10
-18.32369931125729
 20
7.5
 30
0.0
 11
-26.74013458639891
 21
12.35563573565861
 31
0.0
  0
LINE
  5
5C
102
{ACAD_REACTORS
330
284
102
}
330
1F
100
AcDbEntity
  8
1
  6
Continuous
 62
     7
100
AcDbLine
 10
-19.99036597792409
 20
10.84758507263291
 30
0.0
 11
-19.99036597792409
 21
15.73121731203457
 31
0.0
  0
LINE
  5
5D
102
{ACAD_REACTORS
330
284
102
}
330
1F
100
AcDbEntity
  8
1
  6
Continuous
 62
     7
100
AcDbLine
 10
-19.49593229430059
 20
15.86370041827229
 30
0.0
 11
-18.32369931125729
 21
13.83333333333326
 31
0.0
  0
LINE
  5
5E
102
{ACAD_REACTORS
330
284
102
}
330
1F
100
AcDbEntity
  8
1
  6
Continuous
 62
     7
100
AcDbLine
 10
-16.65703264459069
 20
9.3082690706018
 30
0.0
 11
-16.65703264459069
 21
15.73121731203457
 31
0.0
  0
LINE
  5
5F
102
{ACAD_REACTORS
330
284
102
}
330
1F
100
AcDbEntity
  8
1
  6
Continuous
 62
     7
100
AcDbLine
 10
-17.15146632821399
 20
15.86370041827229
 30
0.0
 11
-18.32369931125729
 21
13.83333333333326
 31
0.0
  0
LINE
  5
60
102
{ACAD_REACTORS
330
285
102
}
330
1F
100
AcDbEntity
  8
1
  6
Continuous
 62
     7
100
AcDbLine
 10
-21.32369931125729
 20
10.27002114803258
 30
0.0
 11
-21.32369931125729
 21
14.92250016016737
 31
0.0
  0
LINE
  5
61
102
{ACAD_REACTORS
330
285
102
}
330
1F
100
AcDbEntity
  8
1
  6
Continuous
 62
     7
100
AcDbLine
 10
-20.65703264459069
 20
14.92250016016737
 30
0.0
 11
-20.65703264459069
 21
10.2700211480327
 31
0.0
  0
LINE
  5
62
102
{ACAD_REACTORS
330
285
102
}
330
1F
100
AcDbEntity
  8
1
  6
Continuous
 62
     7
100
AcDbLine
 10
-20.65703264459069
 20
10.2700211480327
 30
0.0
 11
-18.4904584934275
 21
9.0200745223616
 31
0.0
  0
LINE
  5
63
102
{ACAD_REACTORS
330
285
102
}
330
1F
100
AcDbEntity
  8
1
  6
Continuous
 62
     7
100
AcDbLine
 10
-18.8236067957539
 20
8.44261746499581
 30
0.0
 11
-20.99018094691701
 21
9.69256409066691
 31
0.0
  0
LINE
  5
64
102
{ACAD_REACTORS
330
286
102
}
330
1F
100
AcDbEntity
  8
1
  6
Continuous
 62
     7
100
AcDbLine
 10
-21.99036597792409
 20
14.15326939093666
 30
0.0
 11
-21.99036597792409
 21
10.84673060906317
 31
0.0
  0
LINE
  5
65
102
{ACAD_REACTORS
330
286
102
}
330
1F
100
AcDbEntity
  8
1
  6
Continuous
 62
     7
100
AcDbLine
 10
-22.65703264459069
 20
10.84673060906317
 30
0.0
 11
-22.65703264459069
 21
14.15326939093666
 31
0.0
  0
LINE
  5
66
102
{ACAD_REACTORS
330
287
102
}
330
1F
100
AcDbEntity
  8
1
  6
Continuous
 62
     7
100
AcDbLine
 10
-15.4904584934275
 20
15.21122868885027
 30
0.0
 11
-14.15712516009418
 21
14.44199791961938
 31
0.0
  0
LINE
  5
67
102
{ACAD_REACTORS
330
287
102
}
330
1F
100
AcDbEntity
  8
1
  6
Continuous
 62
     7
100
AcDbLine
 10
-14.4902734624205
 20
13.86454086225376
 30
0.0
 11
-15.32369931125729
 21
14.345363467352
 31
0.0
  0
LINE
  5
68
102
{ACAD_REACTORS
330
287
102
}
330
1F
100
AcDbEntity
  8
1
  6
Continuous
 62
     7
100
AcDbLine
 10
-15.32369931125729
 20
14.345363467352
 30
0.0
 11
-15.32369931125729
 21
12.83333333333326
 31
0.0
  0
LINE
  5
69
102
{ACAD_REACTORS
330
287
102
}
330
1F
100
AcDbEntity
  8
1
  6
Continuous
 62
     7
100
AcDbLine
 10
-15.32369931125729
 20
12.83333333333326
 30
0.0
 11
-14.32369931125729
 21
12.83333333333326
 31
0.0
  0
LINE
  5
6A
102
{ACAD_REACTORS
330
287
102
}
330
1F
100
AcDbEntity
  8
1
  6
Continuous
 62
     7
100
AcDbLine
 10
-14.32369931125729
 20
12.16666666666657
 30
0.0
 11
-15.32369931125729
 21
12.16666666666657
 31
0.0
  0
LINE
  5
6B
102
{ACAD_REACTORS
330
287
102
}
330
1F
100
AcDbEntity
  8
1
  6
Continuous
 62
     7
100
AcDbLine
 10
-15.32369931125729
 20
12.16666666666657
 30
0.0
 11
-15.32369931125729
 21
10.654636532648
 31
0.0
  0
LINE
  5
6C
102
{ACAD_REACTORS
330
287
102
}
330
1F
100
AcDbEntity
  8
1
  6
Continuous
 62
     7
100
AcDbLine
 10
-15.32369931125729
 20
10.654636532648
 30
0.0
 11
-14.4902734624205
 21
11.13545913774618
 31
0.0
  0
LINE
  5
6D
102
{ACAD_REACTORS
330
287
102
}
330
1F
100
AcDbEntity
  8
1
  6
Continuous
 62
     7
100
AcDbLine
 10
-14.15712516009418
 20
10.55800208038028
 30
0.0
 11
-15.4904584934275
 21
9.78877131114967
 31
0.0
  0
LINE
  5
6E
330
1F
100
AcDbEntity
  8
1
  6
Continuous
 62
     7
100
AcDbLine
 10
-189.0
 20
25.0
 30
0.0
 11
-5.0
 21
25.0
 31
0.0
  0
LINE
  5
6F
330
1F
100
AcDbEntity
  8
1
  6
Continuous
 62
     7
100
AcDbLine
 10
-182.0
 20
20.0
 30
0.0
 11
-182.0
 21
40.0
 31
0.0
  0
LINE
  5
70
330
1F
100
AcDbEntity
  8
1
  6
Continuous
 62
     7
100
AcDbLine
 10
-163.9999999999999
 20
20.0
 30
0.0
 11
-163.9999999999999
 21
40.0
 31
0.0
  0
LINE
  5
71
330
1F
100
AcDbEntity
  8
1
  6
Continuous
 62
     7
100
AcDbLine
 10
-189.0
 20
30.0
 30
0.0
 11
-5.0
 21
30.0
 31
0.0
  0
LINE
  5
72
330
1F
100
AcDbEntity
  8
1
  6
Continuous
 62
     7
100
AcDbLine
 10
-189.0
 20
35.0
 30
0.0
 11
-5.0
 21
35.0
 31
0.0
  0
LINE
  5
73
330
1F
100
AcDbEntity
  8
1
  6
Continuous
 62
     7
100
AcDbLine
 10
-189.0
 20
40.0
 30
0.0
 11
-5.0
 21
40.0
 31
0.0
  0
LINE
  5
74
330
1F
100
AcDbEntity
  8
1
  6
Continuous
 62
     7
100
AcDbLine
 10
-189.0
 20
4.99999999999989
 30
0.0
 11
-5.0
 21
4.99999999999989
 31
0.0
  0
LINE
  5
75
330
1F
100
AcDbEntity
  8
1
  6
Continuous
 62
     7
100
AcDbLine
 10
-189.0
 20
20.0
 30
0.0
 11
-5.0
 21
20.0
 31
0.0
  0
LINE
  5
76
330
1F
100
AcDbEntity
  8
1
  6
Continuous
 62
     7
100
AcDbLine
 10
0.0
 20
297.0000000000001
 30
0.0
 11
-210.0000000000001
 21
297.0000000000001
 31
0.0
  0
LINE
  5
77
330
1F
100
AcDbEntity
  8
0
  6
Continuous
 62
     7
100
AcDbLine
 10
-44.08000169096604
 20
273.7115620644603
 30
0.0
 11
-27.81654572367508
 21
264.3218513837915
 31
0.0
  0
LINE
  5
78
330
1F
100
AcDbEntity
  8
0
  6
Continuous
 62
     7
100
AcDbLine
 10
-41.64048329587248
 20
279.610749861663
 30
0.0
 11
-46.02454533922909
 21
277.079610460787
 31
0.0
  0
LINE
  5
79
330
1F
100
AcDbEntity
  8
0
  6
Continuous
 62
     7
100
AcDbLine
 10
-40.22626973349954
 20
278.7942532807354
 30
0.0
 11
-38.67063481488898
 21
279.692399519756
 31
0.0
  0
LINE
  5
7A
330
1F
100
AcDbEntity
  8
0
  6
Continuous
 62
     7
100
AcDbLine
 10
-35.48865429954949
 20
278.7126036226425
 30
0.0
 11
-33.29662327787124
 21
277.4470339222045
 31
0.0
  0
LINE
  5
7B
330
1F
100
AcDbEntity
  8
0
  6
Continuous
 62
     7
100
AcDbLine
 10
-36.51395913226994
 20
278.0798187724237
 30
0.0
 11
-33.68553200752367
 21
276.4468256105682
 31
0.0
  0
LINE
  5
7C
330
1F
100
AcDbEntity
  8
0
  6
Continuous
 62
     7
100
AcDbLine
 10
-44.04464635190694
 20
275.3649676408389
 30
0.0
 11
-38.67063481488915
 21
278.4676546483642
 31
0.0
  0
LINE
  5
7D
330
1F
100
AcDbEntity
  8
0
  6
Continuous
 62
     7
100
AcDbLine
 10
-42.63043278953384
 20
274.5484710599112
 30
0.0
 11
-44.04464635190694
 21
275.3649676408389
 31
0.0
  0
LINE
  5
7E
330
1F
100
AcDbEntity
  8
0
  6
Continuous
 62
     7
100
AcDbLine
 10
-44.08000169096604
 20
273.7115620644603
 30
0.0
 11
-42.63043278953384
 21
274.5484710599112
 31
0.0
  0
LINE
  5
7F
330
1F
100
AcDbEntity
  8
0
  6
Continuous
 62
     7
100
AcDbLine
 10
-42.95227022559774
 20
277.3020460757552
 30
0.0
 11
-42.02575327071897
 21
277.8369708890633
 31
0.0
  0
LINE
  5
80
330
1F
100
AcDbEntity
  8
0
  6
Continuous
 62
     7
100
AcDbLine
 10
-46.02454533922909
 20
277.079610460787
 30
0.0
 11
-44.61033177685626
 21
276.2631138798594
 31
0.0
  0
LINE
  5
81
330
1F
100
AcDbEntity
  8
0
  6
Continuous
 62
     7
100
AcDbLine
 10
-36.51395913226994
 20
278.0798187724237
 30
0.0
 11
-36.51395913226994
 21
269.3433053564971
 31
0.0
  0
LINE
  5
82
330
1F
100
AcDbEntity
  8
0
  6
Continuous
 62
     7
100
AcDbLine
 10
-45.02474089835825
 20
273.0322626287708
 30
0.0
 11
-45.66113700142605
 21
272.6648391673533
 31
0.0
  0
LINE
  5
83
330
1F
100
AcDbEntity
  8
0
  6
Continuous
 62
     7
100
AcDbLine
 10
-43.84236926475997
 20
272.3496200478306
 30
0.0
 11
-44.47876536782777
 21
271.9821965864131
 31
0.0
  0
LINE
  5
84
330
1F
100
AcDbEntity
  8
0
  6
Continuous
 62
     7
100
AcDbLine
 10
-37.25642125251616
 20
277.6511580674365
 30
0.0
 11
-36.51395913226994
 21
278.0798187724237
 31
0.0
  0
LINE
  5
85
330
1F
100
AcDbEntity
  8
0
  6
Continuous
 62
     7
100
AcDbLine
 10
-37.25642125251604
 20
269.7719660614844
 30
0.0
 11
-37.25642125251616
 21
277.6511580674365
 31
0.0
  0
LINE
  5
86
330
1F
100
AcDbEntity
  8
0
  6
Continuous
 62
     7
100
AcDbLine
 10
-34.78154751836265
 20
278.3043553321785
 30
0.0
 11
-34.78154751836265
 21
279.1208519131065
 31
0.0
  0
LINE
  5
87
330
1F
100
AcDbEntity
  8
0
  6
Continuous
 62
     7
100
AcDbLine
 10
-38.67063481488915
 20
270.588462642412
 30
0.0
 11
-38.67063481488915
 21
278.4676546483642
 31
0.0
  0
LINE
  5
88
330
1F
100
AcDbEntity
  8
0
  6
Continuous
 62
     7
100
AcDbLine
 10
-37.25642125251616
 20
277.6511580674365
 30
0.0
 11
-38.67063481488915
 21
278.4676546483642
 31
0.0
  0
LINE
  5
89
330
1F
100
AcDbEntity
  8
0
  6
Continuous
 62
     7
100
AcDbLine
 10
-42.02575327071897
 20
277.8369708890633
 30
0.0
 11
-43.76180395429415
 21
278.3043554052442
 31
0.0
  0
LINE
  5
8A
330
1F
100
AcDbEntity
  8
0
  6
Continuous
 62
     7
100
AcDbLine
 10
-43.76180395429415
 20
278.3043554052442
 30
0.0
 11
-42.95227022559774
 21
277.3020460757552
 31
0.0
  0
LINE
  5
8B
330
1F
100
AcDbEntity
  8
0
  6
Continuous
 62
     7
100
AcDbLine
 10
-42.03057563372888
 20
277.8341866964814
 30
0.0
 11
-43.75759046906008
 21
278.2991385558282
 31
0.0
  0
LINE
  5
8C
330
1F
100
AcDbEntity
  8
0
  6
Continuous
 62
     7
100
AcDbLine
 10
-34.78154751836265
 20
279.1208519131065
 30
0.0
 11
-35.48865429954949
 21
278.7126036226425
 31
0.0
  0
LINE
  5
8D
330
1F
100
AcDbEntity
  8
0
  6
Continuous
 62
     7
100
AcDbLine
 10
-33.29662327787124
 20
277.4470339222045
 30
0.0
 11
-32.58951649668435
 21
277.8552822126685
 31
0.0
  0
LINE
  5
8E
330
1F
100
AcDbEntity
  8
0
  6
Continuous
 62
     7
100
AcDbLine
 10
-33.68553200752367
 20
276.4468256105682
 30
0.0
 11
-33.68553200752367
 21
267.7103121946416
 31
0.0
  0
LINE
  5
8F
330
1F
100
AcDbEntity
  8
0
  6
Continuous
 62
     7
100
AcDbLine
 10
-35.80685235108339
 20
279.7128119342792
 30
0.0
 11
-34.78154751836265
 21
279.1208519131065
 31
0.0
  0
LINE
  5
90
330
1F
100
AcDbEntity
  8
0
  6
Continuous
 62
     7
100
AcDbLine
 10
-40.22626973349954
 20
278.7942532807354
 30
0.0
 11
-41.64048329587248
 21
279.610749861663
 31
0.0
  0
LINE
  5
91
330
1F
100
AcDbEntity
  8
0
  6
Continuous
 62
     7
100
AcDbLine
 10
-38.67063481488898
 20
279.692399519756
 30
0.0
 11
-37.25642125251587
 21
278.8759029388283
 31
0.0
  0
LINE
  5
92
330
1F
100
AcDbEntity
  8
0
  6
Continuous
 62
     7
100
AcDbLine
 10
-37.25642125251587
 20
278.8759029388283
 30
0.0
 11
-35.80685235108339
 21
279.7128119342792
 31
0.0
  0
LINE
  5
93
330
1F
100
AcDbEntity
  8
0
  6
Continuous
 62
     7
100
AcDbLine
 10
-26.40233216130203
 20
245.9506783129176
 30
0.0
 11
-16.00786247785978
 21
251.9519281827363
 31
0.0
  0
LINE
  5
94
330
1F
100
AcDbEntity
  8
0
  6
Continuous
 62
     7
100
AcDbLine
 10
-29.23075928604836
 20
247.5836714747731
 30
0.0
 11
-26.40233216130203
 21
245.9506783129176
 31
0.0
  0
LINE
  5
95
330
1F
100
AcDbEntity
  8
0
  6
Continuous
 62
     7
100
AcDbLine
 10
-29.23075928604836
 20
247.5836714747731
 30
0.0
 11
-29.23075928604825
 21
252.4826509603395
 31
0.0
  0
LINE
  5
96
330
1F
100
AcDbEntity
  8
0
  6
Continuous
 62
     7
100
AcDbLine
 10
-26.40233216130203
 20
247.991919765237
 30
0.0
 11
-26.40233216130203
 21
245.9506783129176
 31
0.0
  0
LINE
  5
97
330
1F
100
AcDbEntity
  8
0
  6
Continuous
 62
     7
100
AcDbLine
 10
-44.78710847215236
 20
256.5651338649782
 30
0.0
 11
-42.27687939894044
 21
258.0144152961248
 31
0.0
  0
LINE
  5
98
330
1F
100
AcDbEntity
  8
0
  6
Continuous
 62
     7
100
AcDbLine
 10
-42.27687939894044
 20
258.0144152961248
 30
0.0
 11
-42.27687939894044
 21
260.014831919398
 31
0.0
  0
LINE
  5
99
330
1F
100
AcDbEntity
  8
0
  6
Continuous
 62
     7
100
AcDbLine
 10
-42.63043278953395
 20
272.8746530690096
 30
0.0
 11
-42.63043278953384
 21
274.5484710599112
 31
0.0
  0
LINE
  5
9A
330
1F
100
AcDbEntity
  8
0
  6
Continuous
 62
     7
100
AcDbLine
 10
-43.77165858664127
 20
271.5739482959493
 30
0.0
 11
-43.77165858664127
 21
263.408982486672
 31
0.0
  0
LINE
  5
9B
330
1F
100
AcDbEntity
  8
0
  6
Continuous
 62
     7
100
AcDbLine
 10
-43.13526248357336
 20
271.9413717573668
 30
0.0
 11
-43.77165858664127
 21
271.5739482959493
 31
0.0
  0
LINE
  5
9C
330
1F
100
AcDbEntity
  8
0
  6
Continuous
 62
     7
100
AcDbLine
 10
-44.47876536782777
 20
271.9821965864131
 30
0.0
 11
-43.77165858664127
 21
271.5739482959493
 31
0.0
  0
LINE
  5
9D
330
1F
100
AcDbEntity
  8
0
  6
Continuous
 62
     7
100
AcDbLine
 10
-44.47876536782777
 20
263.8172307771359
 30
0.0
 11
-44.47876536782777
 21
271.9821965864131
 31
0.0
  0
LINE
  5
9E
330
1F
100
AcDbEntity
  8
0
  6
Continuous
 62
     7
100
AcDbLine
 10
-44.31763411717164
 20
272.0752257573543
 30
0.0
 11
-44.31763411717164
 21
272.6240143383069
 31
0.0
  0
LINE
  5
9F
330
1F
100
AcDbEntity
  8
0
  6
Continuous
 62
     7
100
AcDbLine
 10
-44.31763411717164
 20
272.6240143383069
 30
0.0
 11
-44.95403022023967
 21
272.2565908768895
 31
0.0
  0
LINE
  5
A0
330
1F
100
AcDbEntity
  8
0
  6
Continuous
 62
     7
100
AcDbLine
 10
-43.84236926475997
 20
272.3496200478306
 30
0.0
 11
-44.31763411717164
 21
272.6240143383069
 31
0.0
  0
LINE
  5
A1
330
1F
100
AcDbEntity
  8
0
  6
Continuous
 62
     7
100
AcDbLine
 10
-43.13526248357336
 20
263.7764059480895
 30
0.0
 11
-43.13526248357336
 21
271.9413717573668
 31
0.0
  0
LINE
  5
A2
330
1F
100
AcDbEntity
  8
0
  6
Continuous
 62
     7
100
AcDbLine
 10
-43.13526248357336
 20
263.7764059480895
 30
0.0
 11
-43.77165858664127
 21
263.408982486672
 31
0.0
  0
LINE
  5
A3
330
1F
100
AcDbEntity
  8
0
  6
Continuous
 62
     7
100
AcDbLine
 10
-44.47876536782788
 20
264.3660193580885
 30
0.0
 11
-44.95403022023967
 21
264.0916250676122
 31
0.0
  0
LINE
  5
A4
330
1F
100
AcDbEntity
  8
0
  6
Continuous
 62
     7
100
AcDbLine
 10
-43.77165858664127
 20
263.408982486672
 30
0.0
 11
-44.47876536782777
 21
263.8172307771359
 31
0.0
  0
LINE
  5
A5
330
1F
100
AcDbEntity
  8
0
  6
Continuous
 62
     7
100
AcDbLine
 10
-26.36697682224294
 20
265.1587603792422
 30
0.0
 11
-24.95276325986983
 21
264.3422637983144
 31
0.0
  0
LINE
  5
A6
330
1F
100
AcDbEntity
  8
0
  6
Continuous
 62
     7
100
AcDbLine
 10
-24.95276325986978
 20
248.8288287606878
 30
0.0
 11
-26.40233216130203
 21
247.991919765237
 31
0.0
  0
LINE
  5
A7
330
1F
100
AcDbEntity
  8
0
  6
Continuous
 62
     7
100
AcDbLine
 10
-24.95276325986978
 20
248.8288287606878
 30
0.0
 11
-26.36697682224288
 21
249.6453253416155
 31
0.0
  0
LINE
  5
A8
330
1F
100
AcDbEntity
  8
0
  6
Continuous
 62
     7
100
AcDbLine
 10
-24.95276325986978
 20
248.8288287606878
 30
0.0
 11
-24.95276325986978
 21
263.117518926923
 31
0.0
  0
LINE
  5
A9
330
1F
100
AcDbEntity
  8
0
  6
Continuous
 62
     7
100
AcDbLine
 10
-23.07893028972548
 20
270.3231012536103
 30
0.0
 11
-23.07893028972548
 21
265.4241217680437
 31
0.0
  0
LINE
  5
AA
330
1F
100
AcDbEntity
  8
0
  6
Continuous
 62
     7
100
AcDbLine
 10
-24.10423512244605
 20
263.6074168754795
 30
0.0
 11
-24.95276325986978
 21
263.117518926923
 31
0.0
  0
LINE
  5
AB
330
1F
100
AcDbEntity
  8
0
  6
Continuous
 62
     7
100
AcDbLine
 10
-32.58951649668435
 20
277.8552822126685
 30
0.0
 11
-20.63941189463164
 21
270.9558861038292
 31
0.0
  0
LINE
  5
AC
330
1F
100
AcDbEntity
  8
0
  6
Continuous
 62
     7
100
AcDbLine
 10
-20.25050316497904
 20
268.6901080917547
 30
0.0
 11
-23.07893028972548
 21
270.3231012536103
 31
0.0
  0
LINE
  5
AD
330
1F
100
AcDbEntity
  8
0
  6
Continuous
 62
     7
100
AcDbLine
 10
-21.34651867581854
 20
270.5476378133652
 30
0.0
 11
-19.15448765414023
 21
269.2820681129273
 31
0.0
  0
LINE
  5
AE
330
1F
100
AcDbEntity
  8
0
  6
Continuous
 62
     7
100
AcDbLine
 10
-17.42207604023289
 20
269.0983563822186
 30
0.0
 11
-18.87164494166537
 21
268.2614473867678
 31
0.0
  0
LINE
  5
AF
330
1F
100
AcDbEntity
  8
0
  6
Continuous
 62
     7
100
AcDbLine
 10
-18.87164494166537
 20
268.2614473867678
 30
0.0
 11
-17.45743137929215
 21
267.44495080584
 31
0.0
  0
LINE
  5
B0
330
1F
100
AcDbEntity
  8
0
  6
Continuous
 62
     7
100
AcDbLine
 10
-22.69002156007306
 20
262.7909202945518
 30
0.0
 11
-16.89174595434334
 21
266.1385562763555
 31
0.0
  0
LINE
  5
B1
330
1F
100
AcDbEntity
  8
0
  6
Continuous
 62
     7
100
AcDbLine
 10
-16.89174595434334
 20
263.6890665335723
 30
0.0
 11
-16.89174595434334
 21
266.1385562763555
 31
0.0
  0
LINE
  5
B2
330
1F
100
AcDbEntity
  8
0
  6
Continuous
 62
     7
100
AcDbLine
 10
-22.69002156007306
 20
262.7909202945518
 30
0.0
 11
-24.10423512244605
 21
263.6074168754795
 31
0.0
  0
LINE
  5
B3
330
1F
100
AcDbEntity
  8
0
  6
Continuous
 62
     7
100
AcDbLine
 10
-17.45743137929215
 20
267.44495080584
 30
0.0
 11
-17.45743137929227
 21
266.4651549087262
 31
0.0
  0
LINE
  5
B4
330
1F
100
AcDbEntity
  8
0
  6
Continuous
 62
     7
100
AcDbLine
 10
-17.42207604023289
 20
266.444742494203
 30
0.0
 11
-17.42207604023289
 21
269.0983563822186
 31
0.0
  0
LINE
  5
B5
330
1F
100
AcDbEntity
  8
0
  6
Continuous
 62
     7
100
AcDbLine
 10
-17.45743137929215
 20
267.44495080584
 30
0.0
 11
-18.30595951671634
 21
266.9550528572832
 31
0.0
  0
LINE
  5
B6
330
1F
100
AcDbEntity
  8
0
  6
Continuous
 62
     7
100
AcDbLine
 10
-16.89174595434334
 20
266.1385562763555
 30
0.0
 11
-18.30595951671634
 21
266.9550528572832
 31
0.0
  0
LINE
  5
B7
330
1F
100
AcDbEntity
  8
0
  6
Continuous
 62
     7
100
AcDbLine
 10
-20.99296528522526
 20
268.2614473867675
 30
0.0
 11
-19.57875172285215
 21
267.4449508058398
 31
0.0
  0
LINE
  5
B8
330
1F
100
AcDbEntity
  8
0
  6
Continuous
 62
     7
100
AcDbLine
 10
-20.99296528522526
 20
268.2614473867675
 30
0.0
 11
-20.25050316497904
 21
268.6901080917547
 31
0.0
  0
LINE
  5
B9
330
1F
100
AcDbEntity
  8
0
  6
Continuous
 62
     7
100
AcDbLine
 10
-20.63941189463164
 20
270.1393895229012
 30
0.0
 11
-20.63941189463164
 21
270.9558861038292
 31
0.0
  0
LINE
  5
BA
330
1F
100
AcDbEntity
  8
0
  6
Continuous
 62
     7
100
AcDbLine
 10
-20.63941189463164
 20
270.9558861038292
 30
0.0
 11
-21.34651867581854
 21
270.5476378133652
 31
0.0
  0
LINE
  5
BB
330
1F
100
AcDbEntity
  8
0
  6
Continuous
 62
     7
100
AcDbLine
 10
-18.44738087295345
 20
269.6903164033913
 30
0.0
 11
-17.42207604023289
 21
269.0983563822186
 31
0.0
  0
LINE
  5
BC
330
1F
100
AcDbEntity
  8
0
  6
Continuous
 62
     7
100
AcDbLine
 10
-19.15448765414023
 20
269.2820681129273
 30
0.0
 11
-18.44738087295345
 21
269.6903164033913
 31
0.0
  0
LINE
  5
BD
330
1F
100
AcDbEntity
  8
0
  6
Continuous
 62
     7
100
AcDbLine
 10
-23.07893028972548
 20
270.3231012536103
 30
0.0
 11
-22.37182350853887
 21
270.7313495440743
 31
0.0
  0
LINE
  5
BE
330
1F
100
AcDbEntity
  8
0
  6
Continuous
 62
     7
100
AcDbLine
 10
-20.99296528522526
 20
266.6284542249121
 30
0.0
 11
-20.99296528522526
 21
268.2614473867675
 31
0.0
  0
LINE
  5
BF
330
1F
100
AcDbEntity
  8
0
  6
Continuous
 62
     7
100
AcDbLine
 10
-24.95276325986983
 20
264.3422637983144
 30
0.0
 11
-19.57875172285215
 21
267.4449508058398
 31
0.0
  0
LINE
  5
C0
330
1F
100
AcDbEntity
  8
0
  6
Continuous
 62
     7
100
AcDbLine
 10
-27.81654572367508
 20
264.3218513837915
 30
0.0
 11
-26.36697682224294
 21
265.1587603792422
 31
0.0
  0
LINE
  5
C1
330
1F
100
AcDbEntity
  8
0
  6
Continuous
 62
     7
100
AcDbLine
 10
-21.20509731958125
 20
255.4327243356876
 30
0.0
 11
-19.28987679793104
 21
257.8137735408794
 31
0.0
  0
LINE
  5
C2
330
1F
100
AcDbEntity
  8
0
  6
Continuous
 62
     7
100
AcDbLine
 10
-21.20863285348727
 20
255.43476557714
 30
0.0
 11
-19.29471007057597
 21
257.814201401649
 31
0.0
  0
LINE
  5
C3
330
1F
100
AcDbEntity
  8
0
  6
Continuous
 62
     7
100
AcDbLine
 10
-19.43732237061604
 20
257.7286457997989
 30
0.0
 11
-21.20509731958125
 21
255.5309045529764
 31
0.0
  0
LINE
  5
C4
330
1F
100
AcDbEntity
  8
0
  6
Continuous
 62
     7
100
AcDbLine
 10
-17.24529934493668
 20
263.0766940978766
 30
0.0
 11
-22.33646816947984
 21
260.1373064065367
 31
0.0
  0
LINE
  5
C5
330
1F
100
AcDbEntity
  8
0
  6
Continuous
 62
     7
100
AcDbLine
 10
-22.69002156007306
 20
260.3414305517687
 30
0.0
 11
-22.69002156007306
 21
262.7909202945518
 31
0.0
  0
LINE
  5
C6
330
1F
100
AcDbEntity
  8
0
  6
Continuous
 62
     7
100
AcDbLine
 10
-17.42207604023289
 20
254.8096662159834
 30
0.0
 11
-17.42207604023289
 21
262.9746320252608
 31
0.0
  0
LINE
  5
C7
330
1F
100
AcDbEntity
  8
0
  6
Continuous
 62
     7
100
AcDbLine
 10
-20.24755255555848
 20
256.9275697972823
 30
0.0
 11
-20.24755255555848
 21
257.5941485715514
 31
0.0
  0
LINE
  5
C8
330
1F
100
AcDbEntity
  8
0
  6
Continuous
 62
     7
100
AcDbLine
 10
-20.25108808946438
 20
256.9296110387346
 30
0.0
 11
-20.25108808946438
 21
257.5961898130038
 31
0.0
  0
LINE
  5
C9
330
1F
100
AcDbEntity
  8
0
  6
Continuous
 62
     7
100
AcDbLine
 10
-20.39486713463887
 20
257.5090964596638
 30
0.0
 11
-20.39486713463887
 21
256.8425176853946
 31
0.0
  0
LINE
  5
CA
330
1F
100
AcDbEntity
  8
0
  6
Continuous
 62
     7
100
AcDbLine
 10
-20.54218171371937
 20
256.5612795894785
 30
0.0
 11
-20.54218175543925
 21
257.6202303077176
 31
0.0
  0
LINE
  5
CB
330
1F
100
AcDbEntity
  8
0
  6
Continuous
 62
     7
100
AcDbLine
 10
-20.68949629279975
 20
257.4860444986353
 30
0.0
 11
-20.68949629279975
 21
256.4762274775909
 31
0.0
  0
LINE
  5
CC
330
1F
100
AcDbEntity
  8
0
  6
Continuous
 62
     7
100
AcDbLine
 10
-20.83681138500767
 20
256.1949890854205
 30
0.0
 11
-20.83681087188014
 21
257.2539401240009
 31
0.0
  0
LINE
  5
CD
330
1F
100
AcDbEntity
  8
0
  6
Continuous
 62
     7
100
AcDbLine
 10
-20.68949629279975
 20
257.4860444986353
 30
0.0
 11
-20.69303182670566
 21
257.4880857400876
 31
0.0
  0
LINE
  5
CE
330
1F
100
AcDbEntity
  8
0
  6
Continuous
 62
     7
100
AcDbLine
 10
-20.84034691891369
 20
256.1970303268728
 30
0.0
 11
-20.84034640578604
 21
257.2559813654532
 31
0.0
  0
LINE
  5
CF
330
1F
100
AcDbEntity
  8
0
  6
Continuous
 62
     7
100
AcDbLine
 10
-20.98766098486654
 20
256.3396566151923
 30
0.0
 11
-21.20533014366944
 21
256.503452270103
 31
0.0
  0
LINE
  5
D0
330
1F
100
AcDbEntity
  8
0
  6
Continuous
 62
     7
100
AcDbLine
 10
-20.98412545096058
 20
256.33761537374
 30
0.0
 11
-21.20509731958136
 21
256.5038963119152
 31
0.0
  0
LINE
  5
D1
330
1F
100
AcDbEntity
  8
0
  6
Continuous
 62
     7
100
AcDbLine
 10
-21.24189324504456
 20
257.5349449026651
 30
0.0
 11
-20.68949629279975
 21
257.4860444986353
 31
0.0
  0
LINE
  5
D2
330
1F
100
AcDbEntity
  8
0
  6
Continuous
 62
     7
100
AcDbLine
 10
-21.20509731958125
 20
255.4327243356876
 30
0.0
 11
-21.20863285348727
 21
255.43476557714
 31
0.0
  0
LINE
  5
D3
330
1F
100
AcDbEntity
  8
0
  6
Continuous
 62
     7
100
AcDbLine
 10
-20.98412545096058
 20
256.33761537374
 30
0.0
 11
-20.98766098486654
 21
256.3396566151923
 31
0.0
  0
LINE
  5
D4
330
1F
100
AcDbEntity
  8
0
  6
Continuous
 62
     7
100
AcDbLine
 10
-21.20509731958125
 20
256.2444461746807
 30
0.0
 11
-21.20863285348715
 21
256.2464874161331
 31
0.0
  0
LINE
  5
D5
330
1F
100
AcDbEntity
  8
0
  6
Continuous
 62
     7
100
AcDbLine
 10
-22.20303898158684
 20
256.297458691747
 30
0.0
 11
-21.87154845934915
 21
256.7095758529723
 31
0.0
  0
LINE
  5
D6
330
1F
100
AcDbEntity
  8
0
  6
Continuous
 62
     7
100
AcDbLine
 10
-21.83115174849419
 20
256.9497222661818
 30
0.0
 11
-22.27309529860755
 21
256.4002866878134
 31
0.0
  0
LINE
  5
D7
330
1F
100
AcDbEntity
  8
0
  6
Continuous
 62
     7
100
AcDbLine
 10
-22.23983490705015
 20
256.029645188206
 30
0.0
 11
-21.87154845934915
 21
256.2422754679251
 31
0.0
  0
LINE
  5
D8
330
1F
100
AcDbEntity
  8
0
  6
Continuous
 62
     7
100
AcDbLine
 10
-22.19950344768093
 20
256.2954174502946
 30
0.0
 11
-21.86801292544319
 21
256.7075346115199
 31
0.0
  0
LINE
  5
D9
330
1F
100
AcDbEntity
  8
0
  6
Continuous
 62
     7
100
AcDbLine
 10
-21.86801292544319
 20
256.7075346115199
 30
0.0
 11
-21.87154845934915
 21
256.7095758529723
 31
0.0
  0
LINE
  5
DA
330
1F
100
AcDbEntity
  8
0
  6
Continuous
 62
     7
100
AcDbLine
 10
-21.86801292544319
 20
256.7075346115199
 30
0.0
 11
-21.86801292544319
 21
256.4103376808328
 31
0.0
  0
LINE
  5
DB
330
1F
100
AcDbEntity
  8
0
  6
Continuous
 62
     7
100
AcDbLine
 10
-21.72069872095263
 20
255.8808624781079
 30
0.0
 11
-21.72069872095263
 21
256.9398132204339
 31
0.0
  0
LINE
  5
DC
330
1F
100
AcDbEntity
  8
0
  6
Continuous
 62
     7
100
AcDbLine
 10
-21.72423425485854
 20
255.8829037195602
 30
0.0
 11
-21.72423425485854
 21
256.9418544618862
 31
0.0
  0
LINE
  5
DD
330
1F
100
AcDbEntity
  8
0
  6
Continuous
 62
     7
100
AcDbLine
 10
-21.86801292544319
 20
256.2402342264728
 30
0.0
 11
-21.87154845934915
 21
256.2422754679251
 31
0.0
  0
LINE
  5
DE
330
1F
100
AcDbEntity
  8
0
  6
Continuous
 62
     7
100
AcDbLine
 10
-21.86801292544319
 20
256.2402342264728
 30
0.0
 11
-21.86801292544325
 21
255.9430372957856
 31
0.0
  0
LINE
  5
DF
330
1F
100
AcDbEntity
  8
0
  6
Continuous
 62
     7
100
AcDbLine
 10
-21.42606918820197
 20
256.0824590380771
 30
0.0
 11
-21.42960472210788
 21
256.0845002795294
 31
0.0
  0
LINE
  5
E0
330
1F
100
AcDbEntity
  8
0
  6
Continuous
 62
     7
100
AcDbLine
 10
-22.27663083251357
 20
255.7845776265637
 30
0.0
 11
-21.83468728240015
 21
255.7454545034444
 31
0.0
  0
LINE
  5
E1
330
1F
100
AcDbEntity
  8
0
  6
Continuous
 62
     7
100
AcDbLine
 10
-22.27309529860755
 20
255.7825363851113
 30
0.0
 11
-21.83115174849419
 21
255.7434132619921
 31
0.0
  0
LINE
  5
E2
330
1F
100
AcDbEntity
  8
0
  6
Continuous
 62
     7
100
AcDbLine
 10
-21.86801292544319
 20
256.4103376808328
 30
0.0
 11
-22.23629937314424
 21
256.1977074011136
 31
0.0
  0
LINE
  5
E3
330
1F
100
AcDbEntity
  8
0
  6
Continuous
 62
     7
100
AcDbLine
 10
-21.86801292544325
 20
255.9430372957856
 30
0.0
 11
-22.19950344768093
 21
255.9723821725154
 31
0.0
  0
LINE
  5
E4
330
1F
100
AcDbEntity
  8
0
  6
Continuous
 62
     7
100
AcDbLine
 10
-22.23629937314424
 20
256.0276039467537
 30
0.0
 11
-21.86801292544319
 21
256.2402342264728
 31
0.0
  0
LINE
  5
E5
330
1F
100
AcDbEntity
  8
0
  6
Continuous
 62
     7
100
AcDbLine
 10
-21.44764473457158
 20
255.7906442528929
 30
0.0
 11
-21.20863285348715
 21
256.2464874161331
 31
0.0
  0
LINE
  5
E6
330
1F
100
AcDbEntity
  8
0
  6
Continuous
 62
     7
100
AcDbLine
 10
-21.44410881321314
 20
255.7886028466686
 30
0.0
 11
-21.20509731958125
 21
256.2444461746807
 31
0.0
  0
LINE
  5
E7
330
1F
100
AcDbEntity
  8
0
  6
Continuous
 62
     7
100
AcDbLine
 10
-21.20509731958125
 20
256.2444461746807
 30
0.0
 11
-20.96608582594947
 21
256.0645895470441
 31
0.0
  0
LINE
  5
E8
330
1F
100
AcDbEntity
  8
0
  6
Continuous
 62
     7
100
AcDbLine
 10
-21.20509731958136
 20
256.5038963119152
 30
0.0
 11
-21.42606918820197
 21
256.0824590380771
 31
0.0
  0
LINE
  5
E9
330
1F
100
AcDbEntity
  8
0
  6
Continuous
 62
     7
100
AcDbLine
 10
-21.42606918820197
 20
256.0824590380771
 30
0.0
 11
-21.42606918820197
 21
257.3061036445072
 31
0.0
  0
LINE
  5
EA
330
1F
100
AcDbEntity
  8
0
  6
Continuous
 62
     7
100
AcDbLine
 10
-21.42960472210788
 20
256.0845002795294
 30
0.0
 11
-21.42960472210788
 21
257.3081448859596
 31
0.0
  0
LINE
  5
EB
330
1F
100
AcDbEntity
  8
0
  6
Continuous
 62
     7
100
AcDbLine
 10
-21.57338376728236
 20
257.2210515326196
 30
0.0
 11
-21.57338325415488
 21
255.7697291184909
 31
0.0
  0
LINE
  5
EC
330
1F
100
AcDbEntity
  8
0
  6
Continuous
 62
     7
100
AcDbLine
 10
-20.98412545096058
 20
257.1688880121132
 30
0.0
 11
-20.98412545096058
 21
256.33761537374
 31
0.0
  0
LINE
  5
ED
330
1F
100
AcDbEntity
  8
0
  6
Continuous
 62
     7
100
AcDbLine
 10
-21.20863285348727
 20
257.8871776027703
 30
0.0
 11
-19.44085790452194
 21
257.7306870412512
 31
0.0
  0
LINE
  5
EE
330
1F
100
AcDbEntity
  8
0
  6
Continuous
 62
     7
100
AcDbLine
 10
-20.57904307779628
 20
257.6726271695628
 30
0.0
 11
-21.16830139411794
 21
257.7247906900691
 31
0.0
  0
LINE
  5
EF
330
1F
100
AcDbEntity
  8
0
  6
Continuous
 62
     7
100
AcDbLine
 10
-21.20509731958136
 20
257.885136361318
 30
0.0
 11
-19.43732237061604
 21
257.7286457997989
 31
0.0
  0
LINE
  5
F0
330
1F
100
AcDbEntity
  8
0
  6
Continuous
 62
     7
100
AcDbLine
 10
-19.28987679793104
 20
257.8137735408794
 30
0.0
 11
-21.20509731958125
 21
257.9833165786068
 31
0.0
  0
LINE
  5
F1
330
1F
100
AcDbEntity
  8
0
  6
Continuous
 62
     7
100
AcDbLine
 10
-21.20509731958136
 20
257.885136361318
 30
0.0
 11
-21.20863285348727
 21
257.8871776027703
 31
0.0
  0
LINE
  5
F2
330
1F
100
AcDbEntity
  8
0
  6
Continuous
 62
     7
100
AcDbLine
 10
-19.43732237061604
 20
257.7286457997989
 30
0.0
 11
-19.44085790452194
 21
257.7306870412512
 31
0.0
  0
LINE
  5
F3
330
1F
100
AcDbEntity
  8
0
  6
Continuous
 62
     7
100
AcDbLine
 10
-21.24542877895058
 20
257.5369861441175
 30
0.0
 11
-20.69303182670566
 21
257.4880857400876
 31
0.0
  0
LINE
  5
F4
330
1F
100
AcDbEntity
  8
0
  6
Continuous
 62
     7
100
AcDbLine
 10
-20.54571724762527
 20
256.5633208309309
 30
0.0
 11
-20.54571728934527
 21
257.6222715491699
 31
0.0
  0
LINE
  5
F5
330
1F
100
AcDbEntity
  8
0
  6
Continuous
 62
     7
100
AcDbLine
 10
-17.45743137929227
 20
262.9542196107376
 30
0.0
 11
-17.45743137929215
 21
253.1562606396048
 31
0.0
  0
LINE
  5
F6
330
1F
100
AcDbEntity
  8
0
  6
Continuous
 62
     7
100
AcDbLine
 10
-17.42207604023289
 20
254.8096662159834
 30
0.0
 11
-17.45743137929227
 21
254.7892538014602
 31
0.0
  0
LINE
  5
F7
330
1F
100
AcDbEntity
  8
0
  6
Continuous
 62
     7
100
AcDbLine
 10
-46.16596669546649
 20
275.364967640839
 30
0.0
 11
-44.61033177685626
 21
276.2631138798594
 31
0.0
  0
LINE
  5
F8
330
1F
100
AcDbEntity
  8
0
  6
Continuous
 62
     7
100
AcDbLine
 10
-47.61553559689875
 20
258.1981270268338
 30
0.0
 11
-44.78710847215236
 21
256.5651338649782
 31
0.0
  0
LINE
  5
F9
330
1F
100
AcDbEntity
  8
0
  6
Continuous
 62
     7
100
AcDbLine
 10
-46.20132203452564
 20
273.7115620644604
 30
0.0
 11
-44.75175313309338
 21
274.5484710599113
 31
0.0
  0
LINE
  5
FA
330
1F
100
AcDbEntity
  8
0
  6
Continuous
 62
     7
100
AcDbLine
 10
-45.66113700142605
 20
264.4998733580761
 30
0.0
 11
-44.95403022023967
 21
264.0916250676122
 31
0.0
  0
LINE
  5
FB
330
1F
100
AcDbEntity
  8
0
  6
Continuous
 62
     7
100
AcDbLine
 10
-46.02454533922909
 20
275.446617298932
 30
0.0
 11
-46.02454533922909
 21
277.079610460787
 31
0.0
  0
LINE
  5
FC
330
1F
100
AcDbEntity
  8
0
  6
Continuous
 62
     7
100
AcDbLine
 10
-44.78710847215236
 20
261.4641133505446
 30
0.0
 11
-44.78710847215236
 21
256.5651338649782
 31
0.0
  0
LINE
  5
FD
330
1F
100
AcDbEntity
  8
0
  6
Continuous
 62
     7
100
AcDbLine
 10
-44.95403022023967
 20
264.0916250676122
 30
0.0
 11
-44.95403022023967
 21
272.2565908768895
 31
0.0
  0
LINE
  5
FE
330
1F
100
AcDbEntity
  8
0
  6
Continuous
 62
     7
100
AcDbLine
 10
-45.66113700142605
 20
272.6648391673533
 30
0.0
 11
-45.66113700142605
 21
264.4998733580761
 31
0.0
  0
LINE
  5
FF
330
1F
100
AcDbEntity
  8
0
  6
Continuous
 62
     7
100
AcDbLine
 10
-44.95403022023967
 20
272.2565908768895
 30
0.0
 11
-45.66113700142605
 21
272.6648391673533
 31
0.0
  0
LINE
  5
100
330
1F
100
AcDbEntity
  8
0
  6
Continuous
 62
     7
100
AcDbLine
 10
-46.16596669546649
 20
275.364967640839
 30
0.0
 11
-46.16596669546649
 21
273.7319744789836
 31
0.0
  0
LINE
  5
101
330
1F
100
AcDbEntity
  8
0
  6
Continuous
 62
     7
100
AcDbLine
 10
-44.75175313309338
 20
274.5484710599113
 30
0.0
 11
-46.16596669546649
 21
275.364967640839
 31
0.0
  0
LINE
  5
102
330
1F
100
AcDbEntity
  8
0
  6
Continuous
 62
     7
100
AcDbLine
 10
-46.20132203452558
 20
259.4228718982252
 30
0.0
 11
-47.61553559689875
 21
260.239368479153
 31
0.0
  0
LINE
  5
103
330
1F
100
AcDbEntity
  8
0
  6
Continuous
 62
     7
100
AcDbLine
 10
-45.02474089835825
 20
273.0322626287708
 30
0.0
 11
-46.20132203452564
 21
273.7115620644604
 31
0.0
  0
LINE
  5
104
330
1F
100
AcDbEntity
  8
0
  6
Continuous
 62
     7
100
AcDbLine
 10
-46.20132203452558
 20
259.4228718982252
 30
0.0
 11
-46.20132203452564
 21
273.7115620644604
 31
0.0
  0
LINE
  5
105
330
1F
100
AcDbEntity
  8
0
  6
Continuous
 62
     7
100
AcDbLine
 10
-47.61553559689875
 20
260.239368479153
 30
0.0
 11
-47.61553559689875
 21
258.1981270268338
 31
0.0
  0
LINE
  5
106
330
1F
100
AcDbEntity
  8
0
  6
Continuous
 62
     7
100
AcDbLine
 10
-47.61553559689875
 20
260.239368479153
 30
0.0
 11
-46.20132203452564
 21
261.0558650600807
 31
0.0
  0
LINE
  5
107
330
1F
100
AcDbEntity
  8
0
  6
Continuous
 62
     7
100
AcDbLine
 10
-44.78710847215236
 20
261.4641133505446
 30
0.0
 11
-29.23075928604825
 21
252.4826509603395
 31
0.0
  0
LINE
  5
108
330
1F
100
AcDbEntity
  8
0
  6
Continuous
 62
     7
100
AcDbLine
 10
-21.20509731958125
 20
257.9833165786068
 30
0.0
 11
-23.12031784123146
 21
255.602267373415
 31
0.0
  0
LINE
  5
109
330
1F
100
AcDbEntity
  8
0
  6
Continuous
 62
     7
100
AcDbLine
 10
-22.97640780245236
 20
255.6894363559478
 30
0.0
 11
-21.20863285348727
 21
257.8871776027703
 31
0.0
  0
LINE
  5
10A
330
1F
100
AcDbEntity
  8
0
  6
Continuous
 62
     7
100
AcDbLine
 10
-22.58646816947984
 20
260.1125419951084
 30
0.0
 11
-24.00068173185289
 21
260.929038576036
 31
0.0
  0
LINE
  5
10B
330
1F
100
AcDbEntity
  8
0
  6
Continuous
 62
     7
100
AcDbLine
 10
-22.97287226854646
 20
255.6873951144955
 30
0.0
 11
-21.20509731958136
 21
257.885136361318
 31
0.0
  0
LINE
  5
10C
330
1F
100
AcDbEntity
  8
0
  6
Continuous
 62
     7
100
AcDbLine
 10
-23.11902010249255
 20
255.6038807540976
 30
0.0
 11
-21.20863285348727
 21
255.43476557714
 31
0.0
  0
LINE
  5
10D
330
1F
100
AcDbEntity
  8
0
  6
Continuous
 62
     7
100
AcDbLine
 10
-23.12031784123146
 20
255.602267373415
 30
0.0
 11
-21.20509731958125
 21
255.4327243356876
 31
0.0
  0
LINE
  5
10E
330
1F
100
AcDbEntity
  8
0
  6
Continuous
 62
     7
100
AcDbLine
 10
-21.20509731958125
 20
255.5309045529764
 30
0.0
 11
-22.97287226854646
 21
255.6873951144955
 31
0.0
  0
LINE
  5
10F
330
1F
100
AcDbEntity
  8
0
  6
Continuous
 62
     7
100
AcDbLine
 10
-22.97287226854646
 20
255.6873951144955
 30
0.0
 11
-22.97640780245236
 21
255.6894363559478
 31
0.0
  0
LINE
  5
110
330
1F
100
AcDbEntity
  8
0
  6
Continuous
 62
     7
100
AcDbLine
 10
-16.00786247785978
 20
251.9519281827363
 30
0.0
 11
-16.00786247785978
 21
253.9931696350557
 31
0.0
  0
LINE
  5
111
330
1F
100
AcDbEntity
  8
0
  6
Continuous
 62
     7
100
AcDbLine
 10
-16.00786247785978
 20
253.9931696350557
 30
0.0
 11
-17.45743137929215
 21
253.1562606396048
 31
0.0
  0
LINE
  5
112
330
1F
100
AcDbEntity
  8
0
  6
Continuous
 62
     7
100
AcDbLine
 10
-17.42207604023289
 20
254.8096662159834
 30
0.0
 11
-16.00786247785978
 21
253.9931696350557
 31
0.0
  0
LINE
  5
113
330
1F
100
AcDbEntity
  8
0
  6
Continuous
 62
     7
100
AcDbLine
 10
-31.51900137769527
 20
256.3349075487988
 30
0.0
 11
-30.81189459650866
 21
255.926659258335
 31
0.0
  0
LINE
  5
114
330
1F
100
AcDbEntity
  8
0
  6
Continuous
 62
     7
100
AcDbLine
 10
-30.88260527462725
 20
264.8672968194935
 30
0.0
 11
-43.13526248357336
 21
271.9413717573668
 31
0.0
  0
LINE
  5
115
330
1F
100
AcDbEntity
  8
0
  6
Continuous
 62
     7
100
AcDbLine
 10
-22.37182350853887
 20
270.7313495440743
 30
0.0
 11
-32.97842522633695
 21
276.8550739010321
 31
0.0
  0
LINE
  5
116
330
1F
100
AcDbEntity
  8
0
  6
Continuous
 62
     7
100
AcDbLine
 10
-24.10423512244605
 20
261.1579271326963
 30
0.0
 11
-24.10423512244605
 21
263.6074168754795
 31
0.0
  0
LINE
  5
117
330
1F
100
AcDbEntity
  8
0
  6
Continuous
 62
     7
100
AcDbLine
 10
-27.81654572367514
 20
263.0971065123999
 30
0.0
 11
-28.99312685984247
 21
263.7764059480895
 31
0.0
  0
LINE
  5
118
330
1F
100
AcDbEntity
  8
0
  6
Continuous
 62
     7
100
AcDbLine
 10
-30.81189459650866
 20
264.0916250676122
 30
0.0
 11
-31.51900137769527
 21
264.4998733580761
 31
0.0
  0
LINE
  5
119
330
1F
100
AcDbEntity
  8
0
  6
Continuous
 62
     7
100
AcDbLine
 10
-30.17549849344075
 20
264.4590485290296
 30
0.0
 11
-30.81189459650866
 21
264.0916250676122
 31
0.0
  0
LINE
  5
11A
330
1F
100
AcDbEntity
  8
0
  6
Continuous
 62
     7
100
AcDbLine
 10
-28.99312685984247
 20
263.7764059480895
 30
0.0
 11
-29.62952296291038
 21
263.408982486672
 31
0.0
  0
LINE
  5
11B
330
1F
100
AcDbEntity
  8
0
  6
Continuous
 62
     7
100
AcDbLine
 10
-30.33662974409688
 20
263.8172307771359
 30
0.0
 11
-29.62952296291038
 21
263.408982486672
 31
0.0
  0
LINE
  5
11C
330
1F
100
AcDbEntity
  8
0
  6
Continuous
 62
     7
100
AcDbLine
 10
-30.88260527462725
 20
264.8672968194935
 30
0.0
 11
-31.51900137769527
 21
264.4998733580761
 31
0.0
  0
LINE
  5
11D
330
1F
100
AcDbEntity
  8
0
  6
Continuous
 62
     7
100
AcDbLine
 10
-29.70023364102897
 20
264.1846542385534
 30
0.0
 11
-30.33662974409688
 21
263.8172307771359
 31
0.0
  0
LINE
  5
11E
330
1F
100
AcDbEntity
  8
0
  6
Continuous
 62
     7
100
AcDbLine
 10
-29.70023364102897
 20
264.1846542385534
 30
0.0
 11
-30.17549849344075
 21
264.4590485290296
 31
0.0
  0
LINE
  5
11F
330
1F
100
AcDbEntity
  8
0
  6
Continuous
 62
     7
100
AcDbLine
 10
-32.97842522633695
 20
276.8550739010321
 30
0.0
 11
-32.97842522633695
 21
267.3020639041777
 31
0.0
  0
LINE
  5
120
330
1F
100
AcDbEntity
  8
0
  6
Continuous
 62
     7
100
AcDbLine
 10
-33.68553200752367
 20
276.4468256105682
 30
0.0
 11
-32.97842522633695
 21
276.8550739010321
 31
0.0
  0
LINE
  5
121
330
1F
100
AcDbEntity
  8
0
  6
Continuous
 62
     7
100
AcDbLine
 10
-24.95276325986978
 20
263.117518926923
 30
0.0
 11
-26.36697682224288
 21
263.9340155078507
 31
0.0
  0
LINE
  5
122
330
1F
100
AcDbEntity
  8
0
  6
Continuous
 62
     7
100
AcDbLine
 10
-31.51900137769527
 20
264.4998733580761
 30
0.0
 11
-31.51900137769527
 21
256.3349075487988
 31
0.0
  0
LINE
  5
123
330
1F
100
AcDbEntity
  8
0
  6
Continuous
 62
     7
100
AcDbLine
 10
-29.62952296291038
 20
255.2440166773948
 30
0.0
 11
-30.33662974409688
 21
255.6522649678586
 31
0.0
  0
LINE
  5
124
330
1F
100
AcDbEntity
  8
0
  6
Continuous
 62
     7
100
AcDbLine
 10
-26.36697682224288
 20
263.9340155078507
 30
0.0
 11
-27.81654572367514
 21
263.0971065123999
 31
0.0
  0
LINE
  5
125
330
1F
100
AcDbEntity
  8
0
  6
Continuous
 62
     7
100
AcDbLine
 10
-28.99312685984247
 20
255.6114401388122
 30
0.0
 11
-28.99312685984247
 21
263.7764059480895
 31
0.0
  0
LINE
  5
126
330
1F
100
AcDbEntity
  8
0
  6
Continuous
 62
     7
100
AcDbLine
 10
-27.81654572367514
 20
263.0971065123999
 30
0.0
 11
-27.81654572367508
 21
248.8084163461647
 31
0.0
  0
LINE
  5
127
330
1F
100
AcDbEntity
  8
0
  6
Continuous
 62
     7
100
AcDbLine
 10
-26.36697682224288
 20
249.6453253416155
 30
0.0
 11
-27.81654572367508
 21
248.8084163461647
 31
0.0
  0
LINE
  5
128
330
1F
100
AcDbEntity
  8
0
  6
Continuous
 62
     7
100
AcDbLine
 10
-26.40233216130203
 20
247.991919765237
 30
0.0
 11
-27.81654572367508
 21
248.8084163461647
 31
0.0
  0
LINE
  5
129
330
1F
100
AcDbEntity
  8
0
  6
Continuous
 62
     7
100
AcDbLine
 10
-26.36697682224288
 20
263.9340155078507
 30
0.0
 11
-26.36697682224288
 21
249.6453253416155
 31
0.0
  0
LINE
  5
12A
330
1F
100
AcDbEntity
  8
0
  6
Continuous
 62
     7
100
AcDbLine
 10
-30.17549849344075
 20
263.9102599480771
 30
0.0
 11
-30.17549849344075
 21
264.4590485290296
 31
0.0
  0
LINE
  5
12B
330
1F
100
AcDbEntity
  8
0
  6
Continuous
 62
     7
100
AcDbLine
 10
-29.62952296291038
 20
263.408982486672
 30
0.0
 11
-29.62952296291038
 21
255.2440166773948
 31
0.0
  0
LINE
  5
12C
330
1F
100
AcDbEntity
  8
0
  6
Continuous
 62
     7
100
AcDbLine
 10
-28.99312685984247
 20
255.6114401388122
 30
0.0
 11
-29.62952296291038
 21
255.2440166773948
 31
0.0
  0
LINE
  5
12D
330
1F
100
AcDbEntity
  8
0
  6
Continuous
 62
     7
100
AcDbLine
 10
-30.81189459650866
 20
255.926659258335
 30
0.0
 11
-30.81189459650866
 21
264.0916250676122
 31
0.0
  0
LINE
  5
12E
330
1F
100
AcDbEntity
  8
0
  6
Continuous
 62
     7
100
AcDbLine
 10
-30.33662974409688
 20
256.2010535488112
 30
0.0
 11
-30.81189459650866
 21
255.926659258335
 31
0.0
  0
LINE
  5
12F
330
1F
100
AcDbEntity
  8
0
  6
Continuous
 62
     7
100
AcDbLine
 10
-30.33662974409688
 20
255.6522649678586
 30
0.0
 11
-30.33662974409688
 21
263.8172307771359
 31
0.0
  0
LINE
  5
130
330
1F
100
AcDbEntity
  8
0
  6
Continuous
 62
     7
100
AcDbLine
 10
-142.2966274191497
 20
225.727282172707
 30
0.0
 11
-141.6414809974705
 21
223.927282172707
 31
0.0
  0
LINE
  5
131
330
1F
100
AcDbEntity
  8
0
  6
Continuous
 62
     7
100
AcDbLine
 10
-135.7914811306253
 20
252.327282484835
 30
0.0
 11
-137.8414811306248
 21
252.327282484835
 31
0.0
  0
LINE
  5
132
330
1F
100
AcDbEntity
  8
0
  6
Continuous
 62
     7
100
AcDbLine
 10
-137.5414811306248
 20
257.8272824848348
 30
0.0
 11
-137.5414811306248
 21
255.8272824848348
 31
0.0
  0
LINE
  5
133
330
1F
100
AcDbEntity
  8
0
  6
Continuous
 62
     7
100
AcDbLine
 10
-136.3414811306251
 20
255.8272824848348
 30
0.0
 11
-136.3414811306251
 21
253.8272824848348
 31
0.0
  0
LINE
  5
134
330
1F
100
AcDbEntity
  8
0
  6
Continuous
 62
     7
100
AcDbLine
 10
-136.3414811306251
 20
253.8272824848348
 30
0.0
 11
-134.2914811306253
 21
253.8272824848348
 31
0.0
  0
LINE
  5
135
330
1F
100
AcDbEntity
  8
0
  6
Continuous
 62
     7
100
AcDbLine
 10
-136.3414811306251
 20
255.8272824848348
 30
0.0
 11
-134.2914811306253
 21
255.8272824848348
 31
0.0
  0
LINE
  5
136
330
1F
100
AcDbEntity
  8
0
  6
Continuous
 62
     7
100
AcDbLine
 10
-137.8414811306248
 20
252.327282484835
 30
0.0
 11
-137.8414811306248
 21
254.327282484835
 31
0.0
  0
LINE
  5
137
330
1F
100
AcDbEntity
  8
0
  6
Continuous
 62
     7
100
AcDbLine
 10
-134.2914811306253
 20
232.1633454848347
 30
0.0
 11
-133.3914811306253
 21
232.1633454848347
 31
0.0
  0
LINE
  5
138
330
1F
100
AcDbEntity
  8
0
  6
Continuous
 62
     7
100
AcDbLine
 10
-134.2914811306253
 20
252.1633454848347
 30
0.0
 11
-133.3914811306253
 21
252.1633454848347
 31
0.0
  0
LINE
  5
139
330
1F
100
AcDbEntity
  8
0
  6
Continuous
 62
     7
100
AcDbLine
 10
-134.2914811306253
 20
251.1633454848347
 30
0.0
 11
-133.3914811306253
 21
251.1633454848347
 31
0.0
  0
LINE
  5
13A
330
1F
100
AcDbEntity
  8
0
  6
Continuous
 62
     7
100
AcDbLine
 10
-134.2914811306253
 20
250.4912194848347
 30
0.0
 11
-133.3914811306253
 21
250.4912194848347
 31
0.0
  0
LINE
  5
13B
330
1F
100
AcDbEntity
  8
0
  6
Continuous
 62
     7
100
AcDbLine
 10
-134.2914811306253
 20
249.4912194848347
 30
0.0
 11
-133.3914811306253
 21
249.4912194848347
 31
0.0
  0
LINE
  5
13C
330
1F
100
AcDbEntity
  8
0
  6
Continuous
 62
     7
100
AcDbLine
 10
-141.6414809974705
 20
223.927282172707
 30
0.0
 11
-140.9863345757913
 21
225.727282172707
 31
0.0
  0
LINE
  5
13D
330
1F
100
AcDbEntity
  8
0
  6
Continuous
 62
     7
100
AcDbLine
 10
-144.7414811306249
 20
223.8272824848347
 30
0.0
 11
-138.5414811306249
 21
223.8272824848347
 31
0.0
  0
LINE
  5
13E
330
1F
100
AcDbEntity
  8
0
  6
Continuous
 62
     7
100
AcDbLine
 10
-136.3414811306251
 20
225.8272824848344
 30
0.0
 11
-138.5414811306249
 21
225.8272824848344
 31
0.0
  0
LINE
  5
13F
330
1F
100
AcDbEntity
  8
0
  6
Continuous
 62
     7
100
AcDbLine
 10
-144.7414811306249
 20
225.8272824848344
 30
0.0
 11
-146.9414811306254
 21
225.8272824848344
 31
0.0
  0
LINE
  5
140
330
1F
100
AcDbEntity
  8
0
  6
Continuous
 62
     7
100
AcDbLine
 10
-134.2914811306253
 20
225.8272824848344
 30
0.0
 11
-136.3414811306251
 21
225.8272824848344
 31
0.0
  0
LINE
  5
141
330
1F
100
AcDbEntity
  8
0
  6
Continuous
 62
     7
100
AcDbLine
 10
-138.5414811306249
 20
223.8272824848347
 30
0.0
 11
-138.5414811306249
 21
225.8272824848344
 31
0.0
  0
LINE
  5
142
330
1F
100
AcDbEntity
  8
0
  6
Continuous
 62
     7
100
AcDbLine
 10
-144.7414811306249
 20
225.8272824848344
 30
0.0
 11
-144.7414811306249
 21
223.8272824848347
 31
0.0
  0
LINE
  5
143
330
1F
100
AcDbEntity
  8
0
  6
Continuous
 62
     7
100
AcDbLine
 10
-140.9863345757913
 20
225.727282172707
 30
0.0
 11
-142.2966274191497
 21
225.727282172707
 31
0.0
  0
LINE
  5
144
330
1F
100
AcDbEntity
  8
0
  6
Continuous
 62
     7
100
AcDbLine
 10
-137.8414811306248
 20
227.3272824848344
 30
0.0
 11
-145.4414811306248
 21
227.3272824848344
 31
0.0
  0
LINE
  5
145
330
1F
100
AcDbEntity
  8
0
  6
Continuous
 62
     7
100
AcDbLine
 10
-135.7914811306252
 20
229.3272824848344
 30
0.0
 11
-137.8414811306248
 21
229.3272824848344
 31
0.0
  0
LINE
  5
146
330
1F
100
AcDbEntity
  8
0
  6
Continuous
 62
     7
100
AcDbLine
 10
-134.2914811306253
 20
231.1633454848347
 30
0.0
 11
-133.3914811306253
 21
231.1633454848347
 31
0.0
  0
LINE
  5
147
330
1F
100
AcDbEntity
  8
0
  6
Continuous
 62
     7
100
AcDbLine
 10
-134.2914811306253
 20
230.4912194848347
 30
0.0
 11
-133.3914811306253
 21
230.4912194848347
 31
0.0
  0
LINE
  5
148
330
1F
100
AcDbEntity
  8
0
  6
Continuous
 62
     7
100
AcDbLine
 10
-134.2914811306253
 20
229.4912194848347
 30
0.0
 11
-133.3914811306253
 21
229.4912194848347
 31
0.0
  0
LINE
  5
149
330
1F
100
AcDbEntity
  8
0
  6
Continuous
 62
     7
100
AcDbLine
 10
-134.2914811306253
 20
227.8272824848344
 30
0.0
 11
-136.3414811306251
 21
227.8272824848344
 31
0.0
  0
LINE
  5
14A
330
1F
100
AcDbEntity
  8
0
  6
Continuous
 62
     7
100
AcDbLine
 10
-136.3414811306251
 20
227.8272824848344
 30
0.0
 11
-136.3414811306251
 21
225.8272824848344
 31
0.0
  0
LINE
  5
14B
330
1F
100
AcDbEntity
  8
0
  6
Continuous
 62
     7
100
AcDbLine
 10
-134.2914811306253
 20
227.8272824848344
 30
0.0
 11
-134.2914811306253
 21
225.8272824848344
 31
0.0
  0
LINE
  5
14C
330
1F
100
AcDbEntity
  8
0
  6
Continuous
 62
     7
100
AcDbLine
 10
-137.8414811306248
 20
229.3272824848344
 30
0.0
 11
-137.8414811306248
 21
227.3272824848344
 31
0.0
  0
LINE
  5
14D
330
1F
100
AcDbEntity
  8
0
  6
Continuous
 62
     7
100
AcDbLine
 10
-137.8414811306248
 20
254.327282484835
 30
0.0
 11
-145.4414811306248
 21
254.3272824848349
 31
0.0
  0
LINE
  5
14E
330
1F
100
AcDbEntity
  8
0
  6
Continuous
 62
     7
100
AcDbLine
 10
-137.5414811306248
 20
257.8272824848348
 30
0.0
 11
-145.7414811306249
 21
257.8272824848348
 31
0.0
  0
LINE
  5
14F
330
1F
100
AcDbEntity
  8
0
  6
Continuous
 62
     7
100
AcDbLine
 10
-146.9414811306254
 20
255.8272824848348
 30
0.0
 11
-145.7414811306249
 21
255.8272824848348
 31
0.0
  0
LINE
  5
150
330
1F
100
AcDbEntity
  8
0
  6
Continuous
 62
     7
100
AcDbLine
 10
-148.9914811306253
 20
255.8272824848348
 30
0.0
 11
-146.9414811306254
 21
255.8272824848348
 31
0.0
  0
LINE
  5
151
330
1F
100
AcDbEntity
  8
0
  6
Continuous
 62
     7
100
AcDbLine
 10
-137.5414811306248
 20
255.8272824848348
 30
0.0
 11
-136.3414811306251
 21
255.8272824848348
 31
0.0
  0
LINE
  5
152
330
1F
100
AcDbEntity
  8
0
  6
Continuous
 62
     7
100
AcDbLine
 10
-148.9914811306253
 20
252.3772824848347
 30
0.0
 11
-148.9914811306253
 21
249.2772824848348
 31
0.0
  0
LINE
  5
153
330
1F
100
AcDbEntity
  8
0
  6
Continuous
 62
     7
100
AcDbLine
 10
-146.4914811306252
 20
252.3272824848349
 30
0.0
 11
-146.4914811306252
 21
248.3272824848346
 31
0.0
  0
LINE
  5
154
330
1F
100
AcDbEntity
  8
0
  6
Continuous
 62
     7
100
AcDbLine
 10
-146.4914811306252
 20
248.3272824848346
 30
0.0
 11
-147.4914811306253
 21
248.3272824848346
 31
0.0
  0
LINE
  5
155
330
1F
100
AcDbEntity
  8
0
  6
Continuous
 62
     7
100
AcDbLine
 10
-148.9914811306253
 20
249.2772824848348
 30
0.0
 11
-147.991481130625
 21
249.2772824848348
 31
0.0
  0
LINE
  5
156
330
1F
100
AcDbEntity
  8
0
  6
Continuous
 62
     7
100
AcDbLine
 10
-147.991481130625
 20
249.2772824848348
 30
0.0
 11
-147.991481130625
 21
252.3772824848347
 31
0.0
  0
LINE
  5
157
330
1F
100
AcDbEntity
  8
0
  6
Continuous
 62
     7
100
AcDbLine
 10
-147.991481130625
 20
252.3772824848347
 30
0.0
 11
-148.9914811306253
 21
252.3772824848347
 31
0.0
  0
LINE
  5
158
330
1F
100
AcDbEntity
  8
0
  6
Continuous
 62
     7
100
AcDbLine
 10
-148.9914811306253
 20
253.8272824848348
 30
0.0
 11
-146.9414811306254
 21
253.8272824848348
 31
0.0
  0
LINE
  5
159
330
1F
100
AcDbEntity
  8
0
  6
Continuous
 62
     7
100
AcDbLine
 10
-146.9414811306254
 20
253.8272824848348
 30
0.0
 11
-146.9414811306254
 21
255.8272824848348
 31
0.0
  0
LINE
  5
15A
330
1F
100
AcDbEntity
  8
0
  6
Continuous
 62
     7
100
AcDbLine
 10
-145.7414811306249
 20
257.8272824848348
 30
0.0
 11
-145.7414811306249
 21
255.8272824848348
 31
0.0
  0
LINE
  5
15B
330
1F
100
AcDbEntity
  8
0
  6
Continuous
 62
     7
100
AcDbLine
 10
-148.9914811306253
 20
253.8272824848348
 30
0.0
 11
-148.9914811306253
 21
255.8272824848348
 31
0.0
  0
LINE
  5
15C
330
1F
100
AcDbEntity
  8
0
  6
Continuous
 62
     7
100
AcDbLine
 10
-145.4414811306248
 20
252.3272824848349
 30
0.0
 11
-146.4914811306252
 21
252.3272824848349
 31
0.0
  0
LINE
  5
15D
330
1F
100
AcDbEntity
  8
0
  6
Continuous
 62
     7
100
AcDbLine
 10
-145.4414811306248
 20
252.3272824848349
 30
0.0
 11
-145.4414811306248
 21
254.3272824848349
 31
0.0
  0
LINE
  5
15E
330
1F
100
AcDbEntity
  8
0
  6
Continuous
 62
     7
100
AcDbLine
 10
-147.4914811306253
 20
248.3272824848346
 30
0.0
 11
-147.4914811306253
 21
233.3272824848347
 31
0.0
  0
LINE
  5
15F
330
1F
100
AcDbEntity
  8
0
  6
Continuous
 62
     7
100
AcDbLine
 10
-148.9914811306253
 20
232.3772824848347
 30
0.0
 11
-148.9914811306253
 21
249.2772824848348
 31
0.0
  0
LINE
  5
160
330
1F
100
AcDbEntity
  8
0
  6
Continuous
 62
     7
100
AcDbLine
 10
-148.9914811306253
 20
232.3772824848347
 30
0.0
 11
-148.9914811306253
 21
229.2772824848348
 31
0.0
  0
LINE
  5
161
330
1F
100
AcDbEntity
  8
0
  6
Continuous
 62
     7
100
AcDbLine
 10
-148.9914811306253
 20
225.8272824848344
 30
0.0
 11
-148.9914811306253
 21
227.8272824848344
 31
0.0
  0
LINE
  5
162
330
1F
100
AcDbEntity
  8
0
  6
Continuous
 62
     7
100
AcDbLine
 10
-148.9914811306253
 20
227.8272824848344
 30
0.0
 11
-148.9914811306253
 21
229.2772824848348
 31
0.0
  0
LINE
  5
163
330
1F
100
AcDbEntity
  8
0
  6
Continuous
 62
     7
100
AcDbLine
 10
-148.9914811306253
 20
252.3772824848347
 30
0.0
 11
-148.9914811306253
 21
253.8272824848348
 31
0.0
  0
LINE
  5
164
330
1F
100
AcDbEntity
  8
0
  6
Continuous
 62
     7
100
AcDbLine
 10
-146.4914811306252
 20
233.3272824848347
 30
0.0
 11
-147.4914811306253
 21
233.3272824848347
 31
0.0
  0
LINE
  5
165
330
1F
100
AcDbEntity
  8
0
  6
Continuous
 62
     7
100
AcDbLine
 10
-146.4914811306252
 20
229.3272824848344
 30
0.0
 11
-146.4914811306252
 21
233.3272824848347
 31
0.0
  0
LINE
  5
166
330
1F
100
AcDbEntity
  8
0
  6
Continuous
 62
     7
100
AcDbLine
 10
-145.4414811306248
 20
229.3272824848344
 30
0.0
 11
-145.4414811306248
 21
227.3272824848344
 31
0.0
  0
LINE
  5
167
330
1F
100
AcDbEntity
  8
0
  6
Continuous
 62
     7
100
AcDbLine
 10
-147.991481130625
 20
229.2772824848348
 30
0.0
 11
-147.9914811306249
 21
232.3772824848347
 31
0.0
  0
LINE
  5
168
330
1F
100
AcDbEntity
  8
0
  6
Continuous
 62
     7
100
AcDbLine
 10
-146.9414811306254
 20
227.8272824848344
 30
0.0
 11
-148.9914811306253
 21
227.8272824848344
 31
0.0
  0
LINE
  5
169
330
1F
100
AcDbEntity
  8
0
  6
Continuous
 62
     7
100
AcDbLine
 10
-146.9414811306254
 20
225.8272824848344
 30
0.0
 11
-148.9914811306253
 21
225.8272824848344
 31
0.0
  0
LINE
  5
16A
330
1F
100
AcDbEntity
  8
0
  6
Continuous
 62
     7
100
AcDbLine
 10
-148.9914811306253
 20
229.2772824848348
 30
0.0
 11
-147.991481130625
 21
229.2772824848348
 31
0.0
  0
LINE
  5
16B
330
1F
100
AcDbEntity
  8
0
  6
Continuous
 62
     7
100
AcDbLine
 10
-147.9914811306249
 20
232.3772824848347
 30
0.0
 11
-148.9914811306253
 21
232.3772824848347
 31
0.0
  0
LINE
  5
16C
330
1F
100
AcDbEntity
  8
0
  6
Continuous
 62
     7
100
AcDbLine
 10
-146.9414811306254
 20
225.8272824848344
 30
0.0
 11
-146.9414811306254
 21
227.8272824848344
 31
0.0
  0
LINE
  5
16D
330
1F
100
AcDbEntity
  8
0
  6
Continuous
 62
     7
100
AcDbLine
 10
-145.4414811306248
 20
229.3272824848344
 30
0.0
 11
-146.4914811306252
 21
229.3272824848344
 31
0.0
  0
LINE
  5
16E
330
1F
100
AcDbEntity
  8
0
  6
Continuous
 62
     7
100
AcDbLine
 10
-133.3914811306253
 20
230.4912194848347
 30
0.0
 11
-133.3914811306253
 21
229.4912194848347
 31
0.0
  0
LINE
  5
16F
330
1F
100
AcDbEntity
  8
0
  6
Continuous
 62
     7
100
AcDbLine
 10
-133.3914811306253
 20
251.1633454848347
 30
0.0
 11
-133.3914811306253
 21
252.1633454848347
 31
0.0
  0
LINE
  5
170
330
1F
100
AcDbEntity
  8
0
  6
Continuous
 62
     7
100
AcDbLine
 10
-133.3914811306253
 20
250.4912194848347
 30
0.0
 11
-133.3914811306253
 21
249.4912194848347
 31
0.0
  0
LINE
  5
171
330
1F
100
AcDbEntity
  8
0
  6
Continuous
 62
     7
100
AcDbLine
 10
-133.3914811306253
 20
231.1633454848347
 30
0.0
 11
-133.3914811306253
 21
232.1633454848347
 31
0.0
  0
LINE
  5
172
330
1F
100
AcDbEntity
  8
0
  6
Continuous
 62
     7
100
AcDbLine
 10
-135.7914811306252
 20
229.3272824848344
 30
0.0
 11
-135.7914811306253
 21
252.327282484835
 31
0.0
  0
LINE
  5
173
330
1F
100
AcDbEntity
  8
0
  6
Continuous
 62
     7
100
AcDbLine
 10
-134.2914811306253
 20
249.4912194848347
 30
0.0
 11
-134.2914811306253
 21
232.1633454848347
 31
0.0
  0
LINE
  5
174
330
1F
100
AcDbEntity
  8
0
  6
Continuous
 62
     7
100
AcDbLine
 10
-134.2914811306253
 20
253.8272824848348
 30
0.0
 11
-134.2914811306253
 21
252.1633454848347
 31
0.0
  0
LINE
  5
175
330
1F
100
AcDbEntity
  8
0
  6
Continuous
 62
     7
100
AcDbLine
 10
-134.2914811306253
 20
255.8272824848348
 30
0.0
 11
-134.2914811306253
 21
253.8272824848348
 31
0.0
  0
LINE
  5
176
330
1F
100
AcDbEntity
  8
0
  6
Continuous
 62
     7
100
AcDbLine
 10
-134.2914811306253
 20
251.1633454848347
 30
0.0
 11
-134.2914811306253
 21
250.4912194848347
 31
0.0
  0
LINE
  5
177
330
1F
100
AcDbEntity
  8
0
  6
Continuous
 62
     7
100
AcDbLine
 10
-134.2914811306253
 20
231.1633454848347
 30
0.0
 11
-134.2914811306253
 21
230.4912194848347
 31
0.0
  0
LINE
  5
178
330
1F
100
AcDbEntity
  8
0
  6
Continuous
 62
     7
100
AcDbLine
 10
-134.2914811306253
 20
229.4912194848347
 30
0.0
 11
-134.2914811306253
 21
227.8272824848344
 31
0.0
  0
LINE
  5
179
330
1F
100
AcDbEntity
  8
0
  6
Continuous
 62
     7
100
AcDbLine
 10
-138.9329502939718
 20
164.5130043911561
 30
0.0
 11
-141.6414811306247
 21
166.0749167754193
 31
0.0
  0
LINE
  5
17A
330
1F
100
AcDbEntity
  8
0
  6
Continuous
 62
     7
100
AcDbLine
 10
-141.6414811306247
 20
162.9510920068929
 30
0.0
 11
-138.9329502939718
 21
164.5130043911561
 31
0.0
  0
LINE
  5
17B
330
1F
100
AcDbEntity
  8
0
  6
Continuous
 62
     7
100
AcDbLine
 10
-144.3500119672777
 20
164.5130043911561
 30
0.0
 11
-141.6414811306247
 21
162.9510920068929
 31
0.0
  0
LINE
  5
17C
330
1F
100
AcDbEntity
  8
0
  6
Continuous
 62
     7
100
AcDbLine
 10
-142.5268555301383
 20
163.774294466972
 30
0.0
 11
-141.6935184274551
 21
163.2937389114164
 31
0.0
  0
LINE
  5
17D
330
1F
100
AcDbEntity
  8
0
  6
Continuous
 62
     7
100
AcDbLine
 10
-141.5894438337945
 20
163.4742142690645
 30
0.0
 11
-142.3706510954727
 21
163.9247084189482
 31
0.0
  0
LINE
  5
17E
330
1F
100
AcDbEntity
  8
0
  6
Continuous
 62
     7
100
AcDbLine
 10
-140.703976890106
 20
164.0448473078371
 30
0.0
 11
-140.703976890106
 21
164.4088377244895
 31
0.0
  0
LINE
  5
17F
330
1F
100
AcDbEntity
  8
0
  6
Continuous
 62
     7
100
AcDbLine
 10
-140.2351784977592
 20
164.3151864912868
 30
0.0
 11
-140.703976890106
 21
164.0448473078371
 31
0.0
  0
LINE
  5
180
330
1F
100
AcDbEntity
  8
0
  6
Continuous
 62
     7
100
AcDbLine
 10
-140.7561067311112
 20
163.774294466972
 30
0.0
 11
-140.1311039040986
 21
164.1347111336387
 31
0.0
  0
LINE
  5
181
330
1F
100
AcDbEntity
  8
0
  6
Continuous
 62
     7
100
AcDbLine
 10
-140.703976890106
 20
164.4088377244895
 30
0.0
 11
-140.183141200929
 21
164.4088377244895
 31
0.0
  0
LINE
  5
182
330
1F
100
AcDbEntity
  8
0
  6
Continuous
 62
     7
100
AcDbLine
 10
-141.6414811306247
 20
166.0749167754193
 30
0.0
 11
-144.3500119672777
 21
164.5130043911561
 31
0.0
  0
LINE
  5
183
330
1F
100
AcDbEntity
  8
0
  6
Continuous
 62
     7
100
AcDbLine
 10
-144.1414924386748
 20
164.5130043911562
 30
0.0
 11
-141.6414811306247
 21
165.9546710578228
 31
0.0
  0
LINE
  5
184
330
1F
100
AcDbEntity
  8
0
  6
Continuous
 62
     7
100
AcDbLine
 10
-141.6414811306247
 20
165.080764616116
 30
0.0
 11
-141.979494426482
 21
165.4700497463283
 31
0.0
  0
LINE
  5
185
330
1F
100
AcDbEntity
  8
0
  6
Continuous
 62
     7
100
AcDbLine
 10
-139.1414698225748
 20
164.5130043911561
 30
0.0
 11
-141.6414811306247
 21
163.0713377244895
 31
0.0
  0
LINE
  5
186
330
1F
100
AcDbEntity
  8
0
  6
Continuous
 62
     7
100
AcDbLine
 10
-141.6414811306247
 20
165.9546710578228
 30
0.0
 11
-139.1414698225748
 21
164.5130043911561
 31
0.0
  0
LINE
  5
187
330
1F
100
AcDbEntity
  8
0
  6
Continuous
 62
     7
100
AcDbLine
 10
-140.1311039040986
 20
164.8912976486736
 30
0.0
 11
-140.7561064664724
 21
165.2517147742536
 31
0.0
  0
LINE
  5
188
330
1F
100
AcDbEntity
  8
0
  6
Continuous
 62
     7
100
AcDbLine
 10
-140.703976890106
 20
164.9811614744752
 30
0.0
 11
-140.2351784977592
 21
164.7108222910255
 31
0.0
  0
LINE
  5
189
330
1F
100
AcDbEntity
  8
0
  6
Continuous
 62
     7
100
AcDbLine
 10
-140.703976890106
 20
164.6171710578228
 30
0.0
 11
-140.703976890106
 21
164.9811614744752
 31
0.0
  0
LINE
  5
18A
330
1F
100
AcDbEntity
  8
0
  6
Continuous
 62
     7
100
AcDbLine
 10
-140.183141200929
 20
164.6171710578228
 30
0.0
 11
-140.703976890106
 21
164.6171710578228
 31
0.0
  0
LINE
  5
18B
330
1F
100
AcDbEntity
  8
0
  6
Continuous
 62
     7
100
AcDbLine
 10
-141.6414811306247
 20
163.0713377244895
 30
0.0
 11
-144.1414924386748
 21
164.5130043911562
 31
0.0
  0
LINE
  5
18C
330
1F
100
AcDbEntity
  8
0
  6
Continuous
 62
     7
100
AcDbLine
 10
-141.1206454414477
 20
163.6242543680183
 30
0.0
 11
-141.1206461671195
 21
165.401754414294
 31
0.0
  0
LINE
  5
18D
330
1F
100
AcDbEntity
  8
0
  6
Continuous
 62
     7
100
AcDbLine
 10
-140.9123106360268
 20
165.1614766365162
 30
0.0
 11
-140.9123106360268
 21
163.8645321457961
 31
0.0
  0
LINE
  5
18E
330
1F
100
AcDbEntity
  8
0
  6
Continuous
 62
     7
100
AcDbLine
 10
-141.953982544131
 20
165.1229068241496
 30
0.0
 11
-141.6414811306247
 21
164.7630043911562
 31
0.0
  0
LINE
  5
18F
330
1F
100
AcDbEntity
  8
0
  6
Continuous
 62
     7
100
AcDbLine
 10
-142.3706510954727
 20
163.9247084189482
 30
0.0
 11
-142.3706510954727
 21
165.1614766365162
 31
0.0
  0
LINE
  5
190
330
1F
100
AcDbEntity
  8
0
  6
Continuous
 62
     7
100
AcDbLine
 10
-141.953982544131
 20
164.1048099235738
 30
0.0
 11
-141.953982544131
 21
165.1229068241496
 31
0.0
  0
LINE
  5
191
330
1F
100
AcDbEntity
  8
0
  6
Continuous
 62
     7
100
AcDbLine
 10
-141.3034678347675
 20
165.4700497463283
 30
0.0
 11
-141.6414811306247
 21
165.080764616116
 31
0.0
  0
LINE
  5
192
330
1F
100
AcDbEntity
  8
0
  6
Continuous
 62
     7
100
AcDbLine
 10
-141.6414811306247
 20
164.7630043911562
 30
0.0
 11
-141.3289797171185
 21
165.1229068241496
 31
0.0
  0
LINE
  5
193
330
1F
100
AcDbEntity
  8
0
  6
Continuous
 62
     7
100
AcDbLine
 10
-141.3289797171185
 20
165.1229068241496
 30
0.0
 11
-141.3289797171185
 21
163.6242543680183
 31
0.0
  0
LINE
  5
194
330
1F
100
AcDbEntity
  8
0
  6
Continuous
 62
     7
100
AcDbLine
 10
-142.9956539224852
 20
164.9211988587385
 30
0.0
 11
-142.9956539224852
 21
164.1048099235738
 31
0.0
  0
LINE
  5
195
330
1F
100
AcDbEntity
  8
0
  6
Continuous
 62
     7
100
AcDbLine
 10
-142.16231609413
 20
165.401754414294
 30
0.0
 11
-142.1623168198019
 21
164.1048099235738
 31
0.0
  0
LINE
  5
196
330
1F
100
AcDbEntity
  8
0
  6
Continuous
 62
     7
100
AcDbLine
 10
-142.5789853711436
 20
165.1614766365162
 30
0.0
 11
-142.5789853121426
 21
163.8645321457961
 31
0.0
  0
LINE
  5
197
330
1F
100
AcDbEntity
  8
0
  6
Continuous
 62
     7
100
AcDbLine
 10
-142.7873196468144
 20
164.1048099235738
 30
0.0
 11
-142.7873196468144
 21
164.9211988587385
 31
0.0
  0
LINE
  5
198
330
1F
100
AcDbEntity
  8
0
  6
Continuous
 62
     7
100
AcDbLine
 10
-136.3414811306251
 20
171.5130040121062
 30
0.0
 11
-136.3414811306251
 21
154.0130040121062
 31
0.0
  0
LINE
  5
199
330
1F
100
AcDbEntity
  8
0
  6
Continuous
 62
     7
100
AcDbLine
 10
-137.5414811306248
 20
157.0130040121062
 30
0.0
 11
-137.5414811306248
 21
154.0130040121062
 31
0.0
  0
LINE
  5
19A
330
1F
100
AcDbEntity
  8
0
  6
Continuous
 62
     7
100
AcDbLine
 10
-146.9414811306253
 20
154.0130040121062
 30
0.0
 11
-146.9414811306253
 21
171.5130040121061
 31
0.0
  0
LINE
  5
19B
330
1F
100
AcDbEntity
  8
0
  6
Continuous
 62
     7
100
AcDbLine
 10
-145.7414811306248
 20
157.0130040121062
 30
0.0
 11
-145.7414811306248
 21
154.0130040121062
 31
0.0
  0
LINE
  5
19C
330
1F
100
AcDbEntity
  8
0
  6
Continuous
 62
     7
100
AcDbLine
 10
-148.9914811306253
 20
171.5130040121062
 30
0.0
 11
-148.9914811306253
 21
154.0130040121062
 31
0.0
  0
LINE
  5
19D
330
1F
100
AcDbEntity
  8
0
  6
Continuous
 62
     7
100
AcDbLine
 10
-146.9414811306253
 20
154.0130040121062
 30
0.0
 11
-145.7414811306248
 21
154.0130040121062
 31
0.0
  0
LINE
  5
19E
330
1F
100
AcDbEntity
  8
0
  6
Continuous
 62
     7
100
AcDbLine
 10
-133.3914811306253
 20
164.0130040121061
 30
0.0
 11
-133.3914811306253
 21
154.0130040121061
 31
0.0
  0
LINE
  5
19F
330
1F
100
AcDbEntity
  8
0
  6
Continuous
 62
     7
100
AcDbLine
 10
-134.2914811306253
 20
154.0130040121062
 30
0.0
 11
-134.2914811306253
 21
164.0130040121061
 31
0.0
  0
LINE
  5
1A0
330
1F
100
AcDbEntity
  8
0
  6
Continuous
 62
     7
100
AcDbLine
 10
-134.2914811306253
 20
171.5130040121062
 30
0.0
 11
-134.2914811306253
 21
174.013004012106
 31
0.0
  0
LINE
  5
1A1
330
1F
100
AcDbEntity
  8
0
  6
Continuous
 62
     7
100
AcDbLine
 10
-134.2914811306253
 20
164.0130040121061
 30
0.0
 11
-134.2914811306253
 21
171.5130040121062
 31
0.0
  0
LINE
  5
1A2
330
1F
100
AcDbEntity
  8
0
  6
Continuous
 62
     7
100
AcDbLine
 10
-134.2914811306253
 20
164.0130040121061
 30
0.0
 11
-133.3914811306253
 21
164.0130040121061
 31
0.0
  0
LINE
  5
1A3
330
1F
100
AcDbEntity
  8
0
  6
Continuous
 62
     7
100
AcDbLine
 10
-145.2414811306248
 20
157.5130040121062
 30
0.0
 11
-138.0414811306248
 21
157.5130040121062
 31
0.0
  0
LINE
  5
1A4
330
1F
100
AcDbEntity
  8
0
  6
Continuous
 62
     7
100
AcDbLine
 10
-134.2914811306253
 20
174.013004012106
 30
0.0
 11
-148.9914811306253
 21
174.013004012106
 31
0.0
  0
LINE
  5
1A5
330
1F
100
AcDbEntity
  8
0
  6
Continuous
 62
     7
100
AcDbLine
 10
-148.9914811306253
 20
174.013004012106
 30
0.0
 11
-148.9914811306253
 21
171.5130040121062
 31
0.0
  0
LINE
  5
1A6
330
1F
100
AcDbEntity
  8
0
  6
Continuous
 62
     7
100
AcDbLine
 10
-136.3414811306251
 20
171.5130040121062
 30
0.0
 11
-134.2914811306253
 21
171.5130040121062
 31
0.0
  0
LINE
  5
1A7
330
1F
100
AcDbEntity
  8
0
  6
Continuous
 62
     7
100
AcDbLine
 10
-148.9914811306253
 20
171.5130040121062
 30
0.0
 11
-146.9414811306253
 21
171.5130040121061
 31
0.0
  0
LINE
  5
1A8
330
1F
100
AcDbEntity
  8
0
  6
Continuous
 62
     7
100
AcDbLine
 10
-134.2914811306253
 20
154.0130040121062
 30
0.0
 11
-133.3914811306253
 21
154.0130040121061
 31
0.0
  0
LINE
  5
1A9
330
1F
100
AcDbEntity
  8
0
  6
Continuous
 62
     7
100
AcDbLine
 10
-136.3414811306251
 20
154.0130040121062
 30
0.0
 11
-134.2914811306253
 21
154.0130040121062
 31
0.0
  0
LINE
  5
1AA
330
1F
100
AcDbEntity
  8
0
  6
Continuous
 62
     7
100
AcDbLine
 10
-137.5414811306248
 20
154.0130040121062
 30
0.0
 11
-136.3414811306251
 21
154.0130040121062
 31
0.0
  0
LINE
  5
1AB
330
1F
100
AcDbEntity
  8
0
  6
Continuous
 62
     7
100
AcDbLine
 10
-137.5414811306248
 20
154.0130040121062
 30
0.0
 11
-145.7414811306248
 21
154.0130040121062
 31
0.0
  0
LINE
  5
1AC
330
1F
100
AcDbEntity
  8
0
  6
Continuous
 62
     7
100
AcDbLine
 10
-148.9914811306253
 20
154.0130040121062
 30
0.0
 11
-146.9414811306253
 21
154.0130040121062
 31
0.0
  0
LINE
  5
1AD
330
1F
100
AcDbEntity
  8
0
  6
Continuous
 62
     7
100
AcDbLine
 10
-148.9914811306253
 20
109.427286299612
 30
0.0
 11
-148.9914811306253
 21
87.42728629961191
 31
0.0
  0
LINE
  5
1AE
330
1F
100
AcDbEntity
  8
0
  6
Continuous
 62
     7
100
AcDbLine
 10
-145.7414811306249
 20
81.42728629961182
 30
0.0
 11
-145.2414811306249
 21
81.42728629961182
 31
0.0
  0
LINE
  5
1AF
330
1F
100
AcDbEntity
  8
0
  6
Continuous
 62
     7
100
AcDbLine
 10
-148.9914811306253
 20
83.42728629961171
 30
0.0
 11
-148.9914811306253
 21
87.42728629961191
 31
0.0
  0
LINE
  5
1B0
330
1F
100
AcDbEntity
  8
0
  6
Continuous
 62
     7
100
AcDbLine
 10
-148.9914811306253
 20
87.42728629961191
 30
0.0
 11
-145.4414811306248
 21
87.42728629961202
 31
0.0
  0
LINE
  5
1B1
330
1F
100
AcDbEntity
  8
0
  6
Continuous
 62
     7
100
AcDbLine
 10
-145.4414811306248
 20
84.92728629961171
 30
0.0
 11
-145.4414811306248
 21
87.42728629961202
 31
0.0
  0
LINE
  5
1B2
330
1F
100
AcDbEntity
  8
0
  6
Continuous
 62
     7
100
AcDbLine
 10
-145.7414811306249
 20
81.42728629961182
 30
0.0
 11
-145.7414811306249
 21
83.42728629961171
 31
0.0
  0
LINE
  5
1B3
330
1F
100
AcDbEntity
  8
0
  6
Continuous
 62
     7
100
AcDbLine
 10
-133.3914811306253
 20
87.09122329961191
 30
0.0
 11
-133.3914811306253
 21
88.09122329961191
 31
0.0
  0
LINE
  5
1B4
330
1F
100
AcDbEntity
  8
0
  6
Continuous
 62
     7
100
AcDbLine
 10
-134.2914811306253
 20
107.0912232996118
 30
0.0
 11
-134.2914811306253
 21
89.7633492996119
 31
0.0
  0
LINE
  5
1B5
330
1F
100
AcDbEntity
  8
0
  6
Continuous
 62
     7
100
AcDbLine
 10
-134.2914811306253
 20
89.7633492996119
 30
0.0
 11
-134.2914811306253
 21
88.7633492996119
 31
0.0
  0
LINE
  5
1B6
330
1F
100
AcDbEntity
  8
0
  6
Continuous
 62
     7
100
AcDbLine
 10
-134.2914811306253
 20
87.09122329961191
 30
0.0
 11
-134.2914811306253
 21
83.42728629961171
 31
0.0
  0
LINE
  5
1B7
330
1F
100
AcDbEntity
  8
0
  6
Continuous
 62
     7
100
AcDbLine
 10
-134.2914811306253
 20
88.7633492996119
 30
0.0
 11
-134.2914811306253
 21
88.09122329961191
 31
0.0
  0
LINE
  5
1B8
330
1F
100
AcDbEntity
  8
0
  6
Continuous
 62
     7
100
AcDbLine
 10
-134.2914811306253
 20
113.4272862996122
 30
0.0
 11
-134.2914811306253
 21
109.7633492996119
 31
0.0
  0
LINE
  5
1B9
330
1F
100
AcDbEntity
  8
0
  6
Continuous
 62
     7
100
AcDbLine
 10
-134.2914811306253
 20
109.7633492996119
 30
0.0
 11
-134.2914811306253
 21
109.427286299612
 31
0.0
  0
LINE
  5
1BA
330
1F
100
AcDbEntity
  8
0
  6
Continuous
 62
     7
100
AcDbLine
 10
-134.2914811306253
 20
109.427286299612
 30
0.0
 11
-134.2914811306253
 21
108.7633492996119
 31
0.0
  0
LINE
  5
1BB
330
1F
100
AcDbEntity
  8
0
  6
Continuous
 62
     7
100
AcDbLine
 10
-134.2914811306253
 20
108.0912232996118
 30
0.0
 11
-134.2914811306253
 21
107.0912232996118
 31
0.0
  0
LINE
  5
1BC
330
1F
100
AcDbEntity
  8
0
  6
Continuous
 62
     7
100
AcDbLine
 10
-134.2914811306253
 20
108.7633492996119
 30
0.0
 11
-134.2914811306253
 21
108.0912232996118
 31
0.0
  0
LINE
  5
1BD
330
1F
100
AcDbEntity
  8
0
  6
Continuous
 62
     7
100
AcDbLine
 10
-134.2914811306253
 20
88.09122329961191
 30
0.0
 11
-134.2914811306253
 21
87.42728629961191
 31
0.0
  0
LINE
  5
1BE
330
1F
100
AcDbEntity
  8
0
  6
Continuous
 62
     7
100
AcDbLine
 10
-134.2914811306253
 20
88.7633492996119
 30
0.0
 11
-133.3914811306253
 21
88.7633492996119
 31
0.0
  0
LINE
  5
1BF
330
1F
100
AcDbEntity
  8
0
  6
Continuous
 62
     7
100
AcDbLine
 10
-134.2914811306253
 20
87.09122329961191
 30
0.0
 11
-133.3914811306253
 21
87.09122329961191
 31
0.0
  0
LINE
  5
1C0
330
1F
100
AcDbEntity
  8
0
  6
Continuous
 62
     7
100
AcDbLine
 10
-134.2914811306253
 20
88.09122329961191
 30
0.0
 11
-133.3914811306253
 21
88.09122329961191
 31
0.0
  0
LINE
  5
1C1
330
1F
100
AcDbEntity
  8
0
  6
Continuous
 62
     7
100
AcDbLine
 10
-134.2914811306253
 20
89.7633492996119
 30
0.0
 11
-133.3914811306253
 21
89.7633492996119
 31
0.0
  0
LINE
  5
1C2
330
1F
100
AcDbEntity
  8
0
  6
Continuous
 62
     7
100
AcDbLine
 10
-133.3914811306253
 20
89.7633492996119
 30
0.0
 11
-133.3914811306253
 21
88.7633492996119
 31
0.0
  0
LINE
  5
1C3
330
1F
100
AcDbEntity
  8
0
  6
Continuous
 62
     7
100
AcDbLine
 10
-133.3914811306253
 20
107.0912232996118
 30
0.0
 11
-133.3914811306253
 21
108.0912232996118
 31
0.0
  0
LINE
  5
1C4
330
1F
100
AcDbEntity
  8
0
  6
Continuous
 62
     7
100
AcDbLine
 10
-133.3914811306253
 20
109.7633492996119
 30
0.0
 11
-133.3914811306253
 21
108.7633492996119
 31
0.0
  0
LINE
  5
1C5
330
1F
100
AcDbEntity
  8
0
  6
Continuous
 62
     7
100
AcDbLine
 10
-134.2914811306253
 20
108.7633492996119
 30
0.0
 11
-133.3914811306253
 21
108.7633492996119
 31
0.0
  0
LINE
  5
1C6
330
1F
100
AcDbEntity
  8
0
  6
Continuous
 62
     7
100
AcDbLine
 10
-134.2914811306253
 20
109.427286299612
 30
0.0
 11
-137.8414811306248
 21
109.427286299612
 31
0.0
  0
LINE
  5
1C7
330
1F
100
AcDbEntity
  8
0
  6
Continuous
 62
     7
100
AcDbLine
 10
-134.2914811306253
 20
109.7633492996119
 30
0.0
 11
-133.3914811306253
 21
109.7633492996119
 31
0.0
  0
LINE
  5
1C8
330
1F
100
AcDbEntity
  8
0
  6
Continuous
 62
     7
100
AcDbLine
 10
-134.2914811306253
 20
107.0912232996118
 30
0.0
 11
-133.3914811306253
 21
107.0912232996118
 31
0.0
  0
LINE
  5
1C9
330
1F
100
AcDbEntity
  8
0
  6
Continuous
 62
     7
100
AcDbLine
 10
-134.2914811306253
 20
108.0912232996118
 30
0.0
 11
-133.3914811306253
 21
108.0912232996118
 31
0.0
  0
LINE
  5
1CA
330
1F
100
AcDbEntity
  8
0
  6
Continuous
 62
     7
100
AcDbLine
 10
-145.4414811306248
 20
84.92728629961171
 30
0.0
 11
-137.8414811306249
 21
84.92728629961171
 31
0.0
  0
LINE
  5
1CB
330
1F
100
AcDbEntity
  8
0
  6
Continuous
 62
     7
100
AcDbLine
 10
-145.7414811306249
 20
83.42728629961171
 30
0.0
 11
-148.9914811306253
 21
83.42728629961171
 31
0.0
  0
LINE
  5
1CC
330
1F
100
AcDbEntity
  8
0
  6
Continuous
 62
     7
100
AcDbLine
 10
-145.2414811306249
 20
83.42728629961171
 30
0.0
 11
-145.7414811306249
 21
83.42728629961171
 31
0.0
  0
LINE
  5
1CD
330
1F
100
AcDbEntity
  8
0
  6
Continuous
 62
     7
100
AcDbLine
 10
-144.241481130625
 20
113.4272862996121
 30
0.0
 11
-139.0414811306249
 21
113.4272862996122
 31
0.0
  0
LINE
  5
1CE
330
1F
100
AcDbEntity
  8
0
  6
Continuous
 62
     7
100
AcDbLine
 10
-137.8414811306248
 20
111.927286299612
 30
0.0
 11
-145.4414811306248
 21
111.927286299612
 31
0.0
  0
LINE
  5
1CF
330
1F
100
AcDbEntity
  8
0
  6
Continuous
 62
     7
100
AcDbLine
 10
-138.5414811306249
 20
113.4272862996122
 30
0.0
 11
-134.2914811306253
 21
113.4272862996122
 31
0.0
  0
LINE
  5
1D0
330
1F
100
AcDbEntity
  8
0
  6
Continuous
 62
     7
100
AcDbLine
 10
-139.0414811306249
 20
113.4272862996122
 30
0.0
 11
-138.5414811306249
 21
113.4272862996122
 31
0.0
  0
LINE
  5
1D1
330
1F
100
AcDbEntity
  8
0
  6
Continuous
 62
     7
100
AcDbLine
 10
-148.9914811306253
 20
113.4272862996122
 30
0.0
 11
-144.741481130625
 21
113.4272862996121
 31
0.0
  0
LINE
  5
1D2
330
1F
100
AcDbEntity
  8
0
  6
Continuous
 62
     7
100
AcDbLine
 10
-144.741481130625
 20
113.4272862996121
 30
0.0
 11
-144.241481130625
 21
113.4272862996121
 31
0.0
  0
LINE
  5
1D3
330
1F
100
AcDbEntity
  8
0
  6
Continuous
 62
     7
100
AcDbLine
 10
-137.8414811306249
 20
87.42728629961202
 30
0.0
 11
-134.2914811306253
 21
87.42728629961191
 31
0.0
  0
LINE
  5
1D4
330
1F
100
AcDbEntity
  8
0
  6
Continuous
 62
     7
100
AcDbLine
 10
-138.0414811306248
 20
83.42728629961171
 30
0.0
 11
-145.2414811306249
 21
83.42728629961171
 31
0.0
  0
LINE
  5
1D5
330
1F
100
AcDbEntity
  8
0
  6
Continuous
 62
     7
100
AcDbLine
 10
-145.2414811306249
 20
81.42728629961182
 30
0.0
 11
-138.0414811306248
 21
81.42728629961182
 31
0.0
  0
LINE
  5
1D6
330
1F
100
AcDbEntity
  8
0
  6
Continuous
 62
     7
100
AcDbLine
 10
-134.2914811306253
 20
83.42728629961171
 30
0.0
 11
-137.5414811306248
 21
83.42728629961171
 31
0.0
  0
LINE
  5
1D7
330
1F
100
AcDbEntity
  8
0
  6
Continuous
 62
     7
100
AcDbLine
 10
-137.5414811306248
 20
83.42728629961171
 30
0.0
 11
-138.0414811306248
 21
83.42728629961171
 31
0.0
  0
LINE
  5
1D8
330
1F
100
AcDbEntity
  8
0
  6
Continuous
 62
     7
100
AcDbLine
 10
-138.0414811306248
 20
81.42728629961182
 30
0.0
 11
-137.5414811306248
 21
81.42728629961182
 31
0.0
  0
LINE
  5
1D9
330
1F
100
AcDbEntity
  8
0
  6
Continuous
 62
     7
100
AcDbLine
 10
-137.5414811306248
 20
81.42728629961182
 30
0.0
 11
-137.5414811306248
 21
83.42728629961171
 31
0.0
  0
LINE
  5
1DA
330
1F
100
AcDbEntity
  8
0
  6
Continuous
 62
     7
100
AcDbLine
 10
-137.8414811306249
 20
87.42728629961202
 30
0.0
 11
-137.8414811306249
 21
84.92728629961171
 31
0.0
  0
LINE
  5
1DB
330
1F
100
AcDbEntity
  8
0
  6
Continuous
 62
     7
100
AcDbLine
 10
-134.2914811306253
 20
87.42728629961191
 30
0.0
 11
-134.2914811306253
 21
87.09122329961191
 31
0.0
  0
LINE
  5
1DC
330
1F
100
AcDbEntity
  8
0
  6
Continuous
 62
     7
100
AcDbLine
 10
-139.0414811306249
 20
115.4272862996118
 30
0.0
 11
-144.241481130625
 21
115.4272862996118
 31
0.0
  0
LINE
  5
1DD
330
1F
100
AcDbEntity
  8
0
  6
Continuous
 62
     7
100
AcDbLine
 10
-145.4414811306248
 20
111.927286299612
 30
0.0
 11
-145.4414811306248
 21
109.427286299612
 31
0.0
  0
LINE
  5
1DE
330
1F
100
AcDbEntity
  8
0
  6
Continuous
 62
     7
100
AcDbLine
 10
-145.4414811306248
 20
109.427286299612
 30
0.0
 11
-148.9914811306253
 21
109.427286299612
 31
0.0
  0
LINE
  5
1DF
330
1F
100
AcDbEntity
  8
0
  6
Continuous
 62
     7
100
AcDbLine
 10
-138.5414811306249
 20
113.4272862996122
 30
0.0
 11
-138.5414811306249
 21
115.4272862996118
 31
0.0
  0
LINE
  5
1E0
330
1F
100
AcDbEntity
  8
0
  6
Continuous
 62
     7
100
AcDbLine
 10
-137.8414811306248
 20
109.427286299612
 30
0.0
 11
-137.8414811306248
 21
111.927286299612
 31
0.0
  0
LINE
  5
1E1
330
1F
100
AcDbEntity
  8
0
  6
Continuous
 62
     7
100
AcDbLine
 10
-139.0414811306249
 20
115.4272862996118
 30
0.0
 11
-138.5414811306249
 21
115.4272862996118
 31
0.0
  0
LINE
  5
1E2
330
1F
100
AcDbEntity
  8
0
  6
Continuous
 62
     7
100
AcDbLine
 10
-144.741481130625
 20
115.4272862996118
 30
0.0
 11
-144.741481130625
 21
113.4272862996121
 31
0.0
  0
LINE
  5
1E3
330
1F
100
AcDbEntity
  8
0
  6
Continuous
 62
     7
100
AcDbLine
 10
-148.9914811306253
 20
109.427286299612
 30
0.0
 11
-148.9914811306253
 21
113.4272862996122
 31
0.0
  0
LINE
  5
1E4
330
1F
100
AcDbEntity
  8
0
  6
Continuous
 62
     7
100
AcDbLine
 10
-144.241481130625
 20
115.4272862996118
 30
0.0
 11
-144.741481130625
 21
115.4272862996118
 31
0.0
  0
LINE
  5
1E5
330
1F
100
AcDbEntity
  8
0
  6
Continuous
 62
     7
100
AcDbLine
 10
-77.81937024029489
 20
168.013004012106
 30
0.0
 11
-55.81937024029489
 21
168.0130040121062
 31
0.0
  0
LINE
  5
1E6
330
1F
100
AcDbEntity
  8
0
  6
Continuous
 62
     7
100
AcDbLine
 10
-53.81937024029477
 20
171.5130040121062
 30
0.0
 11
-51.81937024029477
 21
171.5130040121062
 31
0.0
  0
LINE
  5
1E7
330
1F
100
AcDbEntity
  8
0
  6
Continuous
 62
     7
100
AcDbLine
 10
-51.81937024029477
 20
174.0130040121063
 30
0.0
 11
-55.81937024029494
 21
174.0130040121062
 31
0.0
  0
LINE
  5
1E8
330
1F
100
AcDbEntity
  8
0
  6
Continuous
 62
     7
100
AcDbLine
 10
-51.81937024029477
 20
174.0130040121063
 30
0.0
 11
-51.81937024029477
 21
171.5130040121062
 31
0.0
  0
LINE
  5
1E9
330
1F
100
AcDbEntity
  8
0
  6
Continuous
 62
     7
100
AcDbLine
 10
-55.26937024029476
 20
154.0130040121062
 30
0.0
 11
-55.26937024029488
 21
164.0130040121062
 31
0.0
  0
LINE
  5
1EA
330
1F
100
AcDbEntity
  8
0
  6
Continuous
 62
     7
100
AcDbLine
 10
-58.36937024029479
 20
164.0130040121062
 30
0.0
 11
-58.36937024029479
 21
154.0130040121062
 31
0.0
  0
LINE
  5
1EB
330
1F
100
AcDbEntity
  8
0
  6
Continuous
 62
     7
100
AcDbLine
 10
-53.81937024029477
 20
154.0130040121062
 30
0.0
 11
-51.81937024029466
 21
154.0130040121062
 31
0.0
  0
LINE
  5
1EC
330
1F
100
AcDbEntity
  8
0
  6
Continuous
 62
     7
100
AcDbLine
 10
-58.36937024029479
 20
154.0130040121062
 30
0.0
 11
-55.26937024029476
 21
154.0130040121062
 31
0.0
  0
LINE
  5
1ED
330
1F
100
AcDbEntity
  8
0
  6
Continuous
 62
     7
100
AcDbLine
 10
-75.26937024029488
 20
154.0130040121062
 30
0.0
 11
-58.36937024029479
 21
154.0130040121062
 31
0.0
  0
LINE
  5
1EE
330
1F
100
AcDbEntity
  8
0
  6
Continuous
 62
     7
100
AcDbLine
 10
-55.26937024029476
 20
154.0130040121062
 30
0.0
 11
-53.81937024029477
 21
154.0130040121062
 31
0.0
  0
LINE
  5
1EF
330
1F
100
AcDbEntity
  8
0
  6
Continuous
 62
     7
100
AcDbLine
 10
-49.81937024029489
 20
154.0130040121062
 30
0.0
 11
-51.81937024029466
 21
154.0130040121062
 31
0.0
  0
LINE
  5
1F0
330
1F
100
AcDbEntity
  8
0
  6
Continuous
 62
     7
100
AcDbLine
 10
-77.81937024029494
 20
174.013004012106
 30
0.0
 11
-77.81937024029489
 21
168.013004012106
 31
0.0
  0
LINE
  5
1F1
330
1F
100
AcDbEntity
  8
0
  6
Continuous
 62
     7
100
AcDbLine
 10
-81.81937024029517
 20
174.013004012106
 30
0.0
 11
-81.81937024029517
 21
171.5130040121062
 31
0.0
  0
LINE
  5
1F2
330
1F
100
AcDbEntity
  8
0
  6
Continuous
 62
     7
100
AcDbLine
 10
-81.81937024029517
 20
171.5130040121062
 30
0.0
 11
-79.81937024029506
 21
171.5130040121062
 31
0.0
  0
LINE
  5
1F3
330
1F
100
AcDbEntity
  8
0
  6
Continuous
 62
     7
100
AcDbLine
 10
-77.81937024029494
 20
174.013004012106
 30
0.0
 11
-81.81937024029517
 21
174.013004012106
 31
0.0
  0
LINE
  5
1F4
330
1F
100
AcDbEntity
  8
0
  6
Continuous
 62
     7
100
AcDbLine
 10
-53.81937024029477
 20
171.5130040121062
 30
0.0
 11
-53.81937024029477
 21
154.0130040121062
 31
0.0
  0
LINE
  5
1F5
330
1F
100
AcDbEntity
  8
0
  6
Continuous
 62
     7
100
AcDbLine
 10
-49.81937024029489
 20
157.0130040121062
 30
0.0
 11
-49.81937024029489
 21
154.0130040121062
 31
0.0
  0
LINE
  5
1F6
330
1F
100
AcDbEntity
  8
0
  6
Continuous
 62
     7
100
AcDbLine
 10
-51.81937024029466
 20
157.0130040121062
 30
0.0
 11
-51.81937024029466
 21
157.5130040121062
 31
0.0
  0
LINE
  5
1F7
330
1F
100
AcDbEntity
  8
0
  6
Continuous
 62
     7
100
AcDbLine
 10
-51.81937024029466
 20
157.5130040121062
 30
0.0
 11
-51.81937024029477
 21
171.5130040121062
 31
0.0
  0
LINE
  5
1F8
330
1F
100
AcDbEntity
  8
0
  6
Continuous
 62
     7
100
AcDbLine
 10
-51.81937024029466
 20
154.0130040121062
 30
0.0
 11
-51.81937024029466
 21
157.0130040121062
 31
0.0
  0
LINE
  5
1F9
330
1F
100
AcDbEntity
  8
0
  6
Continuous
 62
     7
100
AcDbLine
 10
-49.81937024029489
 20
157.0130040121062
 30
0.0
 11
-49.81937024029489
 21
157.5130040121062
 31
0.0
  0
LINE
  5
1FA
330
1F
100
AcDbEntity
  8
0
  6
Continuous
 62
     7
100
AcDbLine
 10
-49.81937024029489
 20
157.5130040121062
 30
0.0
 11
-51.81937024029466
 21
157.5130040121062
 31
0.0
  0
LINE
  5
1FB
330
1F
100
AcDbEntity
  8
0
  6
Continuous
 62
     7
100
AcDbLine
 10
-78.36937024029478
 20
164.0130040121062
 30
0.0
 11
-78.36937024029478
 21
154.0130040121062
 31
0.0
  0
LINE
  5
1FC
330
1F
100
AcDbEntity
  8
0
  6
Continuous
 62
     7
100
AcDbLine
 10
-79.81937024029506
 20
154.0130040121062
 30
0.0
 11
-78.36937024029478
 21
154.0130040121062
 31
0.0
  0
LINE
  5
1FD
330
1F
100
AcDbEntity
  8
0
  6
Continuous
 62
     7
100
AcDbLine
 10
-75.26937024029488
 20
154.0130040121062
 30
0.0
 11
-75.26937024029488
 21
164.0130040121062
 31
0.0
  0
LINE
  5
1FE
330
1F
100
AcDbEntity
  8
0
  6
Continuous
 62
     7
100
AcDbLine
 10
-75.26937024029488
 20
164.0130040121062
 30
0.0
 11
-78.36937024029478
 21
164.0130040121062
 31
0.0
  0
LINE
  5
1FF
330
1F
100
AcDbEntity
  8
0
  6
Continuous
 62
     7
100
AcDbLine
 10
-55.81937024029494
 20
174.0130040121062
 30
0.0
 11
-55.81937024029489
 21
168.0130040121062
 31
0.0
  0
LINE
  5
200
330
1F
100
AcDbEntity
  8
0
  6
Continuous
 62
     7
100
AcDbLine
 10
-55.26937024029488
 20
164.0130040121062
 30
0.0
 11
-58.36937024029479
 21
164.0130040121062
 31
0.0
  0
LINE
  5
201
330
1F
100
AcDbEntity
  8
0
  6
Continuous
 62
     7
100
AcDbLine
 10
-79.81937024029506
 20
154.0130040121062
 30
0.0
 11
-79.81937024029506
 21
171.5130040121062
 31
0.0
  0
LINE
  5
202
330
1F
100
AcDbEntity
  8
0
  6
Continuous
 62
     7
100
AcDbLine
 10
-83.81937024029477
 20
157.0130040121062
 30
0.0
 11
-83.81937024029477
 21
154.0130040121062
 31
0.0
  0
LINE
  5
203
330
1F
100
AcDbEntity
  8
0
  6
Continuous
 62
     7
100
AcDbLine
 10
-81.81937024029517
 20
171.5130040121062
 30
0.0
 11
-81.81937024029517
 21
157.5130040121062
 31
0.0
  0
LINE
  5
204
330
1F
100
AcDbEntity
  8
0
  6
Continuous
 62
     7
100
AcDbLine
 10
-81.81937024029517
 20
157.0130040121062
 30
0.0
 11
-81.81937024029517
 21
154.0130040121062
 31
0.0
  0
LINE
  5
205
330
1F
100
AcDbEntity
  8
0
  6
Continuous
 62
     7
100
AcDbLine
 10
-81.81937024029517
 20
157.5130040121062
 30
0.0
 11
-81.81937024029517
 21
157.0130040121062
 31
0.0
  0
LINE
  5
206
330
1F
100
AcDbEntity
  8
0
  6
Continuous
 62
     7
100
AcDbLine
 10
-83.81937024029477
 20
157.5130040121062
 30
0.0
 11
-81.81937024029517
 21
157.5130040121062
 31
0.0
  0
LINE
  5
207
330
1F
100
AcDbEntity
  8
0
  6
Continuous
 62
     7
100
AcDbLine
 10
-83.81937024029477
 20
157.5130040121062
 30
0.0
 11
-83.81937024029477
 21
157.0130040121062
 31
0.0
  0
LINE
  5
208
330
1F
100
AcDbEntity
  8
0
  6
Continuous
 62
     7
100
AcDbLine
 10
-81.81937024029517
 20
154.0130040121062
 30
0.0
 11
-83.81937024029477
 21
154.0130040121062
 31
0.0
  0
LINE
  5
209
330
1F
100
AcDbEntity
  8
0
  6
Continuous
 62
     7
100
AcDbLine
 10
-78.36937024029478
 20
154.0130040121062
 30
0.0
 11
-75.26937024029488
 21
154.0130040121062
 31
0.0
  0
LINE
  5
20A
330
1F
100
AcDbEntity
  8
0
  6
Continuous
 62
     7
100
AcDbLine
 10
-81.81937024029517
 20
154.0130040121062
 30
0.0
 11
-79.81937024029506
 21
154.0130040121062
 31
0.0
  0
ARC
  5
20B
102
{ACAD_REACTORS
330
284
102
}
330
1F
100
AcDbEntity
  8
1
  6
Continuous
 62
     7
100
AcDbCircle
 10
-19.72539976544869
 20
15.73121731203457
 30
0.0
 40
0.2649662124752854
100
AcDbArc
 50
30.00000000001921
 51
180.0
  0
ARC
  5
20C
102
{ACAD_REACTORS
330
284
102
}
330
1F
100
AcDbEntity
  8
1
  6
Continuous
 62
     7
100
AcDbCircle
 10
-19.65703264459069
 20
10.84758507263291
 30
0.0
 40
0.3333333333333997
100
AcDbArc
 50
180.0
 51
0.0
  0
ARC
  5
20D
102
{ACAD_REACTORS
330
284
102
}
330
1F
100
AcDbEntity
  8
1
  6
Continuous
 62
     7
100
AcDbCircle
 10
-16.99036597792389
 20
9.3082690706018
 30
0.0
 40
0.3333333333333997
100
AcDbArc
 50
180.0
 51
0.0
  0
ARC
  5
20E
102
{ACAD_REACTORS
330
284
102
}
330
1F
100
AcDbEntity
  8
1
  6
Continuous
 62
     7
100
AcDbCircle
 10
-16.921998857066
 20
15.73121731203457
 30
0.0
 40
0.2649662124753114
100
AcDbArc
 50
0.0
 51
149.9999999999689
  0
ARC
  5
20F
102
{ACAD_REACTORS
330
285
102
}
330
1F
100
AcDbEntity
  8
1
  6
Continuous
 62
     7
100
AcDbCircle
 10
-20.99036597792409
 20
14.92250016016737
 30
0.0
 40
0.3333333333333997
100
AcDbArc
 50
0.0
 51
180.0
  0
ARC
  5
210
102
{ACAD_REACTORS
330
285
102
}
330
1F
100
AcDbEntity
  8
1
  6
Continuous
 62
     7
100
AcDbCircle
 10
-18.65703264459069
 20
8.7313459936787
 30
0.0
 40
0.3333333333333673
100
AcDbArc
 50
240.0183606311504
 51
60.01836063115359
  0
ARC
  5
211
102
{ACAD_REACTORS
330
286
102
}
330
1F
100
AcDbEntity
  8
1
  6
Continuous
 62
     7
100
AcDbCircle
 10
-22.32369931125729
 20
14.15326939093666
 30
0.0
 40
0.3333333333332007
100
AcDbArc
 50
0.0
 51
180.0
  0
ARC
  5
212
102
{ACAD_REACTORS
330
286
102
}
330
1F
100
AcDbEntity
  8
1
  6
Continuous
 62
     7
100
AcDbCircle
 10
-22.32369931125729
 20
10.84673060906317
 30
0.0
 40
0.3333333333333997
100
AcDbArc
 50
180.0
 51
0.0
  0
ARC
  5
213
102
{ACAD_REACTORS
330
287
102
}
330
1F
100
AcDbEntity
  8
1
  6
Continuous
 62
     7
100
AcDbCircle
 10
-14.32369931125729
 20
14.15326939093666
 30
0.0
 40
0.333333333333372
100
AcDbArc
 50
240.0183606311508
 51
60.01836063115039
  0
ARC
  5
214
102
{ACAD_REACTORS
330
287
102
}
330
1F
100
AcDbEntity
  8
1
  6
Continuous
 62
     7
100
AcDbCircle
 10
-14.32369931125729
 20
12.5
 30
0.0
 40
0.3333333333334298
100
AcDbArc
 50
270.0
 51
90.0
  0
ARC
  5
215
102
{ACAD_REACTORS
330
287
102
}
330
1F
100
AcDbEntity
  8
1
  6
Continuous
 62
     7
100
AcDbCircle
 10
-14.32369931125729
 20
10.84673060906317
 30
0.0
 40
0.3333333333333121
100
AcDbArc
 50
299.9816393688349
 51
119.9816393688398
  0
ARC
  5
216
330
1F
100
AcDbEntity
  8
0
  6
Continuous
 62
     7
100
AcDbCircle
 10
-138.0414811306248
 20
157.0130040121062
 30
0.0
 40
0.5
100
AcDbArc
 50
0.0
 51
90.0
  0
ARC
  5
217
330
1F
100
AcDbEntity
  8
0
  6
Continuous
 62
     7
100
AcDbCircle
 10
-140.8081438220675
 20
163.8645322988125
 30
0.0
 40
0.1041668139594081
100
AcDbArc
 50
180.0000841649433
 51
299.970587661825
  0
ARC
  5
218
330
1F
100
AcDbEntity
  8
0
  6
Continuous
 62
     7
100
AcDbCircle
 10
-142.4748187335577
 20
163.864532196862
 30
0.0
 40
0.1041665785849216
100
AcDbArc
 50
180.0000280882908
 51
240.0295245916697
  0
ARC
  5
219
330
1F
100
AcDbEntity
  8
0
  6
Continuous
 62
     7
100
AcDbCircle
 10
-142.0581489704262
 20
165.401754414294
 30
0.0
 40
0.1041671237039033
100
AcDbArc
 50
40.96761252028763
 51
180.0
  0
ARC
  5
21A
330
1F
100
AcDbEntity
  8
0
  6
Continuous
 62
     7
100
AcDbCircle
 10
-140.8081435571924
 20
165.1614766365162
 30
0.0
 40
0.1041670788345164
100
AcDbArc
 50
60.02949650331506
 51
180.0
  0
ARC
  5
21B
330
1F
100
AcDbEntity
  8
0
  6
Continuous
 62
     7
100
AcDbCircle
 10
-141.2248132908234
 20
165.401754414294
 30
0.0
 40
0.1041671237038884
100
AcDbArc
 50
0.0
 51
139.0323874796816
  0
ARC
  5
21C
330
1F
100
AcDbEntity
  8
0
  6
Continuous
 62
     7
100
AcDbCircle
 10
-145.2414811306248
 20
157.0130040121062
 30
0.0
 40
0.5
100
AcDbArc
 50
90.0
 51
180.0
  0
SPLINE
  5
21D
330
1F
100
AcDbEntity
  8
0
  6
Continuous
 62
     7
100
AcDbSpline
210
0.0
220
0.0
230
1.0
 70
     8
 71
     3
 72
    11
 73
     7
 74
     5
 42
0.000000001
 43
0.0000000001
 44
0.00000001
 40
0.0
 40
0.0
 40
0.0
 40
0.0
 40
0.0571313167863064
 40
0.1183045338136098
 40
0.1863171763760275
 40
0.2623443902387382
 40
0.2623443902387382
 40
0.2623443902387382
 40
0.2623443902387382
 10
-24.00068173185289
 20
260.929038576036
 30
0.0
 10
-24.01626127514848
 20
260.9403048109299
 30
0.0
 10
-24.04852256658459
 20
260.9636343503475
 30
0.0
 10
-24.08062624237999
 20
261.0184769631629
 30
0.0
 10
-24.10092952146814
 20
261.0843473596783
 30
0.0
 10
-24.10309313170593
 20
261.132507312936
 30
0.0
 10
-24.10423512244605
 20
261.1579271326963
 30
0.0
 11
-24.00068173185289
 21
260.929038576036
 31
0.0
 11
-24.04465061851456
 21
260.9655176749756
 31
0.0
 11
-24.07732247307191
 21
261.0172353010052
 31
0.0
 11
-24.0974416767363
 21
261.0822040437341
 31
0.0
 11
-24.10423512244605
 21
261.1579271326963
 31
0.0
  0
SPLINE
  5
21E
330
1F
100
AcDbEntity
  8
0
  6
Continuous
 62
     7
100
AcDbSpline
210
0.0
220
0.0
230
1.0
 70
     8
 71
     3
 72
    13
 73
     9
 74
     7
 42
0.000000001
 43
0.0000000001
 44
0.00000001
 40
0.0
 40
0.0
 40
0.0
 40
0.0
 40
0.1132603476056675
 40
0.2372511745557374
 40
0.3670339799113245
 40
0.4968167852668607
 40
0.6208076122168716
 40
0.7340679598225095
 40
0.7340679598225095
 40
0.7340679598225095
 40
0.7340679598225095
 10
-16.89174595434334
 20
263.6890665335723
 30
0.0
 10
-16.89433829006366
 20
263.6512865996256
 30
0.0
 10
-16.89976857879196
 20
263.5721473976899
 30
0.0
 10
-16.93715608756162
 20
263.4546179268364
 30
0.0
 10
-16.99235286820617
 20
263.3389036719094
 30
0.0
 10
-17.06496596223055
 20
263.2332447302006
 30
0.0
 10
-17.14805571529819
 20
263.1421014623951
 30
0.0
 10
-17.21387713024568
 20
263.0978290934389
 30
0.0
 10
-17.24529934493668
 20
263.0766940978766
 30
0.0
 11
-16.89174595434334
 21
263.6890665335723
 31
0.0
 11
-16.90379308503813
 21
263.5764487148904
 31
0.0
 11
-16.93911312708882
 21
263.4575949384051
 31
0.0
 11
-16.99529941158813
 21
263.3406048595241
 31
0.0
 11
-17.06852264964001
 21
263.233451070363
 31
0.0
 11
-17.15379301838667
 21
263.1434361284418
 31
0.0
 11
-17.24529934493668
 21
263.0766940978766
 31
0.0
  0
SPLINE
  5
21F
330
1F
100
AcDbEntity
  8
0
  6
Continuous
 62
     7
100
AcDbSpline
210
0.0
220
0.0
230
1.0
 70
     8
 71
     3
 72
    21
 73
    17
 74
    15
 42
0.000000001
 43
0.0000000001
 44
0.00000001
 40
0.0
 40
0.0
 40
0.0
 40
0.0
 40
0.0094256591259306
 40
0.0192826128273059
 40
0.0311369772620716
 40
0.044273981334089
 40
0.0654390124424995
 40
0.0889569573115777
 40
0.0999453544047598
 40
0.1138912030611627
 40
0.1270213165094496
 40
0.1397140125573361
 40
0.1573043040531834
 40
0.1742748853631264
 40
0.1881963195231534
 40
0.2056847295842355
 40
0.2056847295842355
 40
0.2056847295842355
 40
0.2056847295842355
 10
-20.37503132080749
 20
256.7959052410652
 30
0.0
 10
-20.37210277513485
 20
256.7947185982682
 30
0.0
 10
-20.36611167768731
 20
256.7922910271807
 30
0.0
 10
-20.35559426887166
 20
256.7916568160812
 30
0.0
 10
-20.34404800647615
 20
256.7934217808577
 30
0.0
 10
-20.3295319141485
 20
256.7987948868391
 30
0.0
 10
-20.31302775367372
 20
256.8090209656986
 30
0.0
 10
-20.2992275679295
 20
256.8215616376032
 30
0.0
 10
-20.28853625984597
 20
256.8336775993789
 30
0.0
 10
-20.28086605613078
 20
256.8438041785551
 30
0.0
 10
-20.27368606699423
 20
256.8549615397643
 30
0.0
 10
-20.26674036691916
 20
256.8676681776326
 30
0.0
 10
-20.26035463173561
 20
256.8821016008288
 30
0.0
 10
-20.25540599030521
 20
256.8975067987679
 30
0.0
 10
-20.25190495415805
 20
256.913300933097
 30
0.0
 10
-20.25138023628845
 20
256.9237777459444
 30
0.0
 10
-20.25108808946438
 20
256.9296110387346
 30
0.0
 11
-20.37503132080749
 21
256.7959052410652
 31
0.0
 11
-20.36612090921315
 21
256.7928315184699
 31
0.0
 11
-20.35629780519624
 21
256.7920153029187
 31
0.0
 11
-20.34456761625307
 21
256.7937266144166
 31
0.0
 11
-20.33220290061464
 21
256.7981644812054
 31
0.0
 11
-20.31407585309339
 21
256.8090900778495
 31
0.0
 11
-20.29655811591814
 21
256.824781559536
 31
0.0
 11
-20.28928157603147
 21
256.8330154429203
 31
0.0
 11
-20.28085224923054
 21
256.844125489813
 31
0.0
 11
-20.27374430833627
 21
256.8551652839402
 31
0.0
 11
-20.26765615290989
 21
256.866302559032
 31
0.0
 11
-20.26056692191972
 21
256.8824010421948
 31
0.0
 11
-20.25537170245249
 21
256.8985568559176
 31
0.0
 11
-20.25250650031631
 21
256.9121802511313
 31
0.0
 11
-20.25108808946438
 21
256.9296110387346
 31
0.0
  0
SPLINE
  5
220
330
1F
100
AcDbEntity
  8
0
  6
Continuous
 62
     7
100
AcDbSpline
210
0.0
220
0.0
230
1.0
 70
     8
 71
     3
 72
    23
 73
    19
 74
    17
 42
0.000000001
 43
0.0000000001
 44
0.00000001
 40
0.0
 40
0.0
 40
0.0
 40
0.0
 40
0.0119196876031102
 40
0.0212998922721731
 40
0.0350972402263784
 40
0.0462865354984186
 40
0.0564394321227064
 40
0.0676291359734472
 40
0.0777937679485207
 40
0.0910197474059627
 40
0.1047164852068895
 40
0.1159539057114822
 40
0.1301757614330923
 40
0.1417765434210609
 40
0.1566465309908665
 40
0.1763361010823484
 40
0.1950149903865848
 40
0.2077470967998551
 40
0.2077470967998551
 40
0.2077470967998551
 40
0.2077470967998551
 10
-20.37329353196176
 20
256.7948326938584
 30
0.0
 10
-20.36963607675133
 20
256.793187486229
 30
0.0
 10
-20.36310038202135
 20
256.7902475938167
 30
0.0
 10
-20.35124453151985
 20
256.7896072652351
 30
0.0
 10
-20.33986750376187
 20
256.791571220854
 30
0.0
 10
-20.32888522551849
 20
256.7957776250839
 30
0.0
 10
-20.31930606286692
 20
256.8009004579644
 30
0.0
 10
-20.31059978331101
 20
256.8068080524272
 30
0.0
 10
-20.30166151980956
 20
256.814103488991
 30
0.0
 10
-20.29277298483109
 20
256.8227210202816
 30
0.0
 10
-20.28443065470901
 20
256.8323435411356
 30
0.0
 10
-20.27662432282968
 20
256.8428138898846
 30
0.0
 10
-20.26996362524751
 20
256.8532347620911
 30
0.0
 10
-20.26348970079064
 20
256.8651630744884
 30
0.0
 10
-20.25715201711986
 20
256.8792075247435
 30
0.0
 10
-20.25156329531498
 20
256.8960822756417
 30
0.0
 10
-20.24811562131903
 20
256.9128507709142
 30
0.0
 10
-20.24771495543865
 20
256.923324417744
 30
0.0
 10
-20.24755255555848
 20
256.9275697972823
 30
0.0
 11
-20.37329353196176
 21
256.7948326938584
 31
0.0
 11
-20.36211465191322
 21
256.7906960539027
 31
0.0
 11
-20.35276227129028
 21
256.7899740614664
 31
0.0
 11
-20.33914515699525
 21
256.7921968898067
 31
0.0
 11
-20.32866736670874
 21
256.7961232397531
 31
0.0
 11
-20.3196989057094
 21
256.8008822321816
 31
0.0
 11
-20.31042117446335
 21
256.8071378830808
 31
0.0
 11
-20.30253590946219
 21
256.8135521121654
 31
0.0
 11
-20.29302258201218
 21
256.8227403180837
 31
0.0
 11
-20.28403783642815
 21
256.8330783531454
 31
0.0
 11
-20.27731671532464
 21
256.8420842483607
 31
0.0
 11
-20.26965416294697
 21
256.8540653363358
 31
0.0
 11
-20.26412061900398
 21
256.8642613175797
 31
0.0
 11
-20.25802052877617
 21
256.8778224911972
 31
0.0
 11
-20.25183616854658
 21
256.8965156144652
 31
0.0
 11
-20.24832212157911
 21
256.9148609759607
 31
0.0
 11
-20.24755255555848
 21
256.9275697972823
 31
0.0
  0
SPLINE
  5
221
330
1F
100
AcDbEntity
  8
0
  6
Continuous
 62
     7
100
AcDbSpline
210
0.0
220
0.0
230
1.0
 70
     8
 71
     3
 72
     9
 73
     5
 74
     3
 42
0.000000001
 43
0.0000000001
 44
0.00000001
 40
0.0
 40
0.0
 40
0.0
 40
0.0
 40
0.0298419755076441
 40
0.0541844130933779
 40
0.0541844130933779
 40
0.0541844130933779
 40
0.0541844130933779
 10
-20.24755255555848
 20
257.5941485715514
 30
0.0
 10
-20.24813952151094
 20
257.6045415188544
 30
0.0
 10
-20.2492053000305
 20
257.6234121046227
 30
0.0
 10
-20.26295091213321
 20
257.6361231222384
 30
0.0
 10
-20.26912615823559
 20
257.6418335630877
 30
0.0
 11
-20.24755255555848
 21
257.5941485715514
 31
0.0
 11
-20.25315955846903
 21
257.6234590675526
 31
0.0
 11
-20.26912615823559
 21
257.6418335630877
 31
0.0
  0
SPLINE
  5
222
330
1F
100
AcDbEntity
  8
0
  6
Continuous
 62
     7
100
AcDbSpline
210
0.0
220
0.0
230
1.0
 70
     8
 71
     3
 72
     9
 73
     5
 74
     3
 42
0.000000001
 43
0.0000000001
 44
0.00000001
 40
0.0
 40
0.0
 40
0.0
 40
0.0
 40
0.0298419755076454
 40
0.0541844130933317
 40
0.0541844130933317
 40
0.0541844130933317
 40
0.0541844130933317
 10
-20.39486713463887
 20
256.8425176853946
 30
0.0
 10
-20.3942801686864
 20
256.8321247380915
 30
0.0
 10
-20.39321439016687
 20
256.8132541523233
 30
0.0
 10
-20.37946877806413
 20
256.8005431347077
 30
0.0
 10
-20.37329353196176
 20
256.7948326938584
 30
0.0
 11
-20.39486713463887
 21
256.8425176853946
 31
0.0
 11
-20.38926013172831
 21
256.8132071893934
 31
0.0
 11
-20.37329353196176
 21
256.7948326938584
 31
0.0
  0
SPLINE
  5
223
330
1F
100
AcDbEntity
  8
0
  6
Continuous
 62
     7
100
AcDbSpline
210
0.0
220
0.0
230
1.0
 70
     8
 71
     3
 72
     9
 73
     5
 74
     3
 42
0.000000001
 43
0.0000000001
 44
0.00000001
 40
0.0
 40
0.0
 40
0.0
 40
0.0
 40
0.0287260711220901
 40
0.0522323340096083
 40
0.0522323340096083
 40
0.0522323340096083
 40
0.0522323340096083
 10
-20.25108808946438
 20
257.5961898130038
 30
0.0
 10
-20.25162979671362
 20
257.6061451128238
 30
0.0
 10
-20.25261479574268
 20
257.6242467309274
 30
0.0
 10
-20.26524147395103
 20
257.637043358269
 30
0.0
 10
-20.27092390040209
 20
257.6428022554279
 30
0.0
 11
-20.25108808946438
 21
257.5961898130038
 31
0.0
 11
-20.25623441004268
 21
257.6244511414817
 31
0.0
 11
-20.27092390040209
 21
257.6428022554279
 31
0.0
  0
SPLINE
  5
224
330
1F
100
AcDbEntity
  8
0
  6
Continuous
 62
     7
100
AcDbSpline
210
0.0
220
0.0
230
1.0
 70
     8
 71
     3
 72
    13
 73
     9
 74
     7
 42
0.000000001
 43
0.0000000001
 44
0.00000001
 40
0.0
 40
0.0
 40
0.0
 40
0.0
 40
0.024342581140553
 40
0.0541847651325728
 40
0.090406526939398
 40
0.1305314681614957
 40
0.1706564110075063
 40
0.2068781788890967
 40
0.2068781788890967
 40
0.2068781788890967
 40
0.2068781788890967
 10
-20.96255222640726
 20
256.0622516598792
 30
0.0
 10
-20.95457545586961
 20
256.0598151768157
 30
0.0
 10
-20.93681975993207
 20
256.0543917635506
 30
0.0
 10
-20.90747644798847
 20
256.0674089217146
 30
0.0
 10
-20.88027045145078
 20
256.0899501811061
 30
0.0
 10
-20.85728120394388
 20
256.1217072787301
 30
0.0
 10
-20.84070061488885
 20
256.1574427961289
 30
0.0
 10
-20.8380628395197
 20
256.182907612186
 30
0.0
 10
-20.83681138500767
 20
256.1949890854205
 30
0.0
 11
-20.96255222640726
 21
256.0622516598792
 31
0.0
 11
-20.93865599940765
 21
256.0576114140871
 31
0.0
 11
-20.91046866455536
 21
256.0674109348966
 31
0.0
 11
-20.88228132970311
 21
256.0901593448165
 31
0.0
 11
-20.85838510270346
 21
256.1223925767903
 31
0.0
 11
-20.84241841846784
 21
256.1592039324136
 31
0.0
 11
-20.83681138500767
 21
256.1949890854205
 31
0.0
  0
SPLINE
  5
225
330
1F
100
AcDbEntity
  8
0
  6
Continuous
 62
     7
100
AcDbSpline
210
0.0
220
0.0
230
1.0
 70
     8
 71
     3
 72
    23
 73
    19
 74
    17
 42
0.000000001
 43
0.0000000001
 44
0.00000001
 40
0.0
 40
0.0
 40
0.0
 40
0.0
 40
0.0082103010126161
 40
0.0192789523958203
 40
0.0292710400875234
 40
0.0442692079970546
 40
0.0535281790981933
 40
0.0656116571242142
 40
0.0757762890950254
 40
0.0890022685566756
 40
0.1013093388854071
 40
0.113936674828824
 40
0.128158530552473
 40
0.1397593125429066
 40
0.1546293001128619
 40
0.1743188701714574
 40
0.1929977593987647
 40
0.2057298659573323
 40
0.2057298659573323
 40
0.2057298659573323
 40
0.2057298659573323
 10
-20.66965846051468
 20
256.4296137042776
 30
0.0
 10
-20.66712102868747
 20
256.4285573851894
 30
0.0
 10
-20.66116277485603
 20
256.4260770106299
 30
0.0
 10
-20.65124907565092
 20
256.4253491696854
 30
0.0
 10
-20.63929994755154
 20
256.4269486774778
 30
0.0
 10
-20.62844751767347
 20
256.4308299450491
 30
0.0
 10
-20.61772833109
 20
256.436491959391
 30
0.0
 10
-20.60899473702864
 20
256.4423710115685
 30
0.0
 10
-20.59982651303094
 20
256.4498543240146
 30
0.0
 10
-20.59127040344972
 20
256.4581493933921
 30
0.0
 10
-20.58288779693402
 20
256.467732039938
 30
0.0
 10
-20.57503862855229
 20
256.4781744412231
 30
0.0
 10
-20.56812835962581
 20
256.4889857187338
 30
0.0
 10
-20.56165437897575
 20
256.5009141327418
 30
0.0
 10
-20.55531671446528
 20
256.5149585483722
 30
0.0
 10
-20.54972798557149
 20
256.531833312001
 30
0.0
 10
-20.54628031345466
 20
256.5486018040431
 30
0.0
 10
-20.54587964757775
 20
256.5590754512169
 30
0.0
 10
-20.54571724762527
 20
256.5633208309309
 30
0.0
 11
-20.66965846051468
 21
256.4296137042776
 31
0.0
 11
-20.66194254966766
 21
256.4268076577622
 31
0.0
 11
-20.65092696335719
 21
256.4257250951149
 31
0.0
 11
-20.641016822196
 21
256.4270021589902
 31
0.0
 11
-20.62683205877558
 21
256.4318742734017
 31
0.0
 11
-20.6186328323269
 21
256.4361755784124
 31
0.0
 11
-20.60858586653014
 21
256.4428889167294
 31
0.0
 11
-20.60070060153132
 21
256.449303145812
 31
0.0
 11
-20.59118727407908
 21
256.4584913517322
 31
0.0
 11
-20.58307483811406
 21
256.4677462077139
 31
0.0
 11
-20.57548140739149
 21
256.4778352820093
 31
0.0
 11
-20.56781885501435
 21
256.4898163699834
 31
0.0
 11
-20.56228531107077
 21
256.5000123512282
 31
0.0
 11
-20.55618522084199
 21
256.5135735248482
 31
0.0
 11
-20.55000086061337
 21
256.5322666481138
 31
0.0
 11
-20.54648681364628
 21
256.5506120096064
 31
0.0
 11
-20.54571724762527
 21
256.5633208309309
 31
0.0
  0
SPLINE
  5
226
330
1F
100
AcDbEntity
  8
0
  6
Continuous
 62
     7
100
AcDbSpline
210
0.0
220
0.0
230
1.0
 70
     8
 71
     3
 72
    19
 73
    15
 74
    13
 42
0.000000001
 43
0.0000000001
 44
0.00000001
 40
0.0
 40
0.0
 40
0.0
 40
0.0
 40
0.0104170566141362
 40
0.0213059959613216
 40
0.0312980835350399
 40
0.0462962513956239
 40
0.0674612824598675
 40
0.0909792272980207
 40
0.1160867361220384
 40
0.1417024953329698
 40
0.1565724828965924
 40
0.1762620532109594
 40
0.1901834873272012
 40
0.2076718973358611
 40
0.2076718973358611
 40
0.2076718973358611
 40
0.2076718973358611
 10
-20.66792269012259
 20
256.4285424860546
 30
0.0
 10
-20.66475056868606
 20
256.4270698025883
 30
0.0
 10
-20.65826262821619
 20
256.4240577365078
 30
0.0
 10
-20.64765177446638
 20
256.4233202285499
 30
0.0
 10
-20.63576405787893
 20
256.4249058982001
 30
0.0
 10
-20.62114850133565
 20
256.430137181795
 30
0.0
 10
-20.60412297566404
 20
256.4406894574786
 30
0.0
 10
-20.5868260060337
 20
256.456406759724
 30
0.0
 10
-20.57124415741898
 20
256.4757458059697
 30
0.0
 10
-20.5600420550069
 20
256.494612320462
 30
0.0
 10
-20.55178094516229
 20
256.5129154670409
 30
0.0
 10
-20.54669450571486
 20
256.5282886455566
 30
0.0
 10
-20.54299909936934
 20
256.5449692247282
 30
0.0
 10
-20.54247404687768
 20
256.5554462040216
 30
0.0
 10
-20.54218171371937
 20
256.5612795894785
 30
0.0
 11
-20.66792269012259
 21
256.4285424860546
 31
0.0
 11
-20.65823053476596
 21
256.4247244542195
 31
0.0
 11
-20.64739142945117
 21
256.4236838536626
 31
0.0
 11
-20.63748128828878
 21
256.4249609175383
 31
0.0
 11
-20.62329652486968
 21
256.4298330319493
 31
0.0
 11
-20.60516947734777
 21
256.4407586285938
 31
0.0
 11
-20.58765174017307
 21
256.4564501102799
 31
0.0
 11
-20.57183676039238
 21
256.4759507104054
 31
0.0
 11
-20.55874977716487
 21
256.4979711097759
 31
0.0
 11
-20.55264968693751
 21
256.5115322833921
 31
0.0
 11
-20.54646532670747
 21
256.5302254066614
 31
0.0
 11
-20.54360012457147
 21
256.5438488018742
 31
0.0
 11
-20.54218171371937
 21
256.5612795894785
 31
0.0
  0
SPLINE
  5
227
330
1F
100
AcDbEntity
  8
0
  6
Continuous
 62
     7
100
AcDbSpline
210
0.0
220
0.0
230
1.0
 70
     8
 71
     3
 72
     9
 73
     5
 74
     3
 42
0.000000001
 43
0.0000000001
 44
0.00000001
 40
0.0
 40
0.0
 40
0.0
 40
0.0
 40
0.0298419755076528
 40
0.054184413093389
 40
0.054184413093389
 40
0.054184413093389
 40
0.054184413093389
 10
-20.68949629279975
 20
256.4762274775909
 30
0.0
 10
-20.68890932684727
 20
256.4658345302877
 30
0.0
 10
-20.68784354832768
 20
256.4469639445197
 30
0.0
 10
-20.67409793622496
 20
256.4342529269039
 30
0.0
 10
-20.66792269012259
 20
256.4285424860546
 30
0.0
 11
-20.68949629279975
 21
256.4762274775909
 31
0.0
 11
-20.68388928988915
 21
256.4469169815897
 31
0.0
 11
-20.66792269012259
 21
256.4285424860546
 31
0.0
  0
SPLINE
  5
228
330
1F
100
AcDbEntity
  8
0
  6
Continuous
 62
     7
100
AcDbSpline
210
0.0
220
0.0
230
1.0
 70
     8
 71
     3
 72
     9
 73
     5
 74
     3
 42
0.000000001
 43
0.0000000001
 44
0.00000001
 40
0.0
 40
0.0
 40
0.0
 40
0.0
 40
0.0287263069715411
 40
0.0522327447236823
 40
0.0522327447236823
 40
0.0522327447236823
 40
0.0522327447236823
 10
-20.84034640578604
 20
257.2559813654532
 30
0.0
 10
-20.84088812215121
 20
257.2659367569353
 30
0.0
 10
-20.84187313741375
 20
257.2840385354244
 30
0.0
 10
-20.85450004670534
 20
257.2968351532038
 30
0.0
 10
-20.86018257474117
 20
257.3025940436166
 30
0.0
 11
-20.84034640578604
 21
257.2559813654532
 31
0.0
 11
-20.84549282114067
 21
257.2842429164004
 31
0.0
 11
-20.86018257474117
 21
257.3025940436166
 31
0.0
  0
SPLINE
  5
229
330
1F
100
AcDbEntity
  8
0
  6
Continuous
 62
     7
100
AcDbSpline
210
0.0
220
0.0
230
1.0
 70
     8
 71
     3
 72
    23
 73
    19
 74
    17
 42
0.000000001
 43
0.0000000001
 44
0.00000001
 40
0.0
 40
0.0
 40
0.0
 40
0.0
 40
0.0119198735256881
 40
0.0212998910198293
 40
0.031291978678253
 40
0.0462901466444337
 40
0.0555491177464279
 40
0.0676325957920819
 40
0.0791040269813122
 40
0.0910233622359027
 40
0.1020117593558391
 40
0.1159576080365192
 40
0.1272844673781012
 40
0.1417801834296048
 40
0.1619554726671279
 40
0.1763401950747397
 40
0.1950190843760455
 40
0.2077511907935455
 40
0.2077511907935455
 40
0.2077511907935455
 40
0.2077511907935455
 10
-20.85838447455725
 20
257.3016251155372
 30
0.0
 10
-20.8620414901018
 20
257.3032708429998
 30
0.0
 10
-20.86857629686654
 20
257.3062116181981
 30
0.0
 10
-20.87915245055565
 20
257.3067767894534
 30
0.0
 10
-20.89054308192113
 20
257.3052636430984
 30
0.0
 10
-20.90139509290372
 20
257.3013782786115
 30
0.0
 10
-20.91211445307774
 20
257.2957170334276
 30
0.0
 10
-20.92120984930952
 20
257.2895940968086
 30
0.0
 10
-20.9303406290273
 20
257.2820593446799
 30
0.0
 10
-20.93854460381438
 20
257.2740391753116
 30
0.0
 10
-20.94667746354262
 20
257.2648207836934
 30
0.0
 10
-20.95398430024083
 20
257.2551745339871
 30
0.0
 10
-20.9612188227865
 20
257.2440564991213
 30
0.0
 10
-20.96864686070048
 20
257.230627435545
 30
0.0
 10
-20.97517405380908
 20
257.2155845620102
 30
0.0
 10
-20.98046825406294
 20
257.1986370532434
 30
0.0
 10
-20.98356315932772
 20
257.1836066326709
 30
0.0
 10
-20.98396327437919
 20
257.1731332746072
 30
0.0
 10
-20.98412545096058
 20
257.1688880121132
 30
0.0
 11
-20.85838447455725
 21
257.3016251155372
 31
0.0
 11
-20.86956353960617
 21
257.3057617913485
 31
0.0
 11
-20.87891573522867
 21
257.3064837479292
 31
0.0
 11
-20.88882587639241
 21
257.3052066840531
 31
0.0
 11
-20.90301063981027
 21
257.3003345696424
 31
0.0
 11
-20.91120986624778
 21
257.2960332646383
 31
0.0
 11
-20.92125683205565
 21
257.2893199263147
 31
0.0
 11
-20.93011980708373
 21
257.2820369734932
 31
0.0
 11
-20.93865542450688
 21
257.2737174913119
 31
0.0
 11
-20.94593196439732
 21
257.2654836079229
 31
0.0
 11
-20.95436129119437
 21
257.2543735610348
 31
0.0
 11
-20.96054085574564
 21
257.2448808942315
 31
0.0
 11
-20.96755738751514
 21
257.2321964918158
 31
0.0
 11
-20.97554862581291
 21
257.2136713087566
 31
0.0
 11
-20.97984183797248
 21
257.1999421949303
 31
0.0
 11
-20.98335588493972
 21
257.1815968334369
 31
0.0
 11
-20.98412545096058
 21
257.1688880121132
 31
0.0
  0
SPLINE
  5
22A
330
1F
100
AcDbEntity
  8
0
  6
Continuous
 62
     7
100
AcDbSpline
210
0.0
220
0.0
230
1.0
 70
     8
 71
     3
 72
     9
 73
     5
 74
     3
 42
0.000000001
 43
0.0000000001
 44
0.00000001
 40
0.0
 40
0.0
 40
0.0
 40
0.0
 40
0.0298419755075883
 40
0.0541844130933673
 40
0.0541844130933673
 40
0.0541844130933673
 40
0.0541844130933673
 10
-20.83681087188014
 20
257.2539401240009
 30
0.0
 10
-20.8373978378326
 20
257.264333071304
 30
0.0
 10
-20.83846361635216
 20
257.283203657072
 30
0.0
 10
-20.85220922845487
 20
257.2959146746879
 30
0.0
 10
-20.85838447455725
 20
257.3016251155372
 30
0.0
 11
-20.83681087188014
 21
257.2539401240009
 31
0.0
 11
-20.84241787479069
 21
257.283250620002
 31
0.0
 11
-20.85838447455725
 21
257.3016251155372
 31
0.0
  0
SPLINE
  5
22B
330
1F
100
AcDbEntity
  8
0
  6
Continuous
 62
     7
100
AcDbSpline
210
0.0
220
0.0
230
1.0
 70
     8
 71
     3
 72
    13
 73
     9
 74
     7
 42
0.000000001
 43
0.0000000001
 44
0.00000001
 40
0.0
 40
0.0
 40
0.0
 40
0.0
 40
0.0242799298503157
 40
0.0541266424435323
 40
0.0901039262810158
 40
0.1297287091542011
 40
0.169237976871354
 40
0.2049052128185417
 40
0.2049052128185417
 40
0.2049052128185417
 40
0.2049052128185417
 10
-20.96428998484694
 20
256.0633242568749
 30
0.0
 10
-20.95623364808657
 20
256.0613303327244
 30
0.0
 10
-20.93827385671807
 20
256.0568853435151
 30
0.0
 10
-20.90948860225964
 20
256.0704888864702
 30
0.0
 10
-20.88273768488746
 20
256.0932112033444
 30
0.0
 10
-20.86027852858133
 20
256.1247632243738
 30
0.0
 10
-20.8441207881592
 20
256.1600585101514
 30
0.0
 10
-20.84156126832389
 20
256.1851335557919
 30
0.0
 10
-20.84034691891369
 20
256.1970303268728
 30
0.0
 11
-20.96428998484694
 21
256.0633242568749
 31
0.0
 11
-20.94025540541417
 21
256.0598812556108
 31
0.0
 11
-20.91233735393075
 21
256.0704363100702
 31
0.0
 11
-20.88466590428309
 21
256.0934288261656
 31
0.0
 11
-20.86133461490532
 21
256.1254565384538
 31
0.0
 11
-20.84579554355226
 21
256.1617817274685
 31
0.0
 11
-20.84034691891369
 21
256.1970303268728
 31
0.0
  0
SPLINE
  5
22C
330
1F
100
AcDbEntity
  8
0
  6
Continuous
 62
     7
100
AcDbSpline
210
0.0
220
0.0
230
1.0
 70
     8
 71
     3
 72
    11
 73
     7
 74
     5
 42
0.000000001
 43
0.0000000001
 44
0.00000001
 40
0.0
 40
0.0
 40
0.0
 40
0.0
 40
0.0200983185676775
 40
0.0436346295600666
 40
0.0717779172523111
 40
0.1037132245039757
 40
0.1037132245039757
 40
0.1037132245039757
 40
0.1037132245039757
 10
-21.74227242935555
 20
256.9874985250858
 30
0.0
 10
-21.74872751793498
 20
256.98978679894
 30
0.0
 10
-21.76274189742463
 20
256.9947547614768
 30
0.0
 10
-21.78681894043352
 20
256.9875242507575
 30
0.0
 10
-21.81057139811537
 20
256.9727207599284
 30
0.0
 10
-21.82400891966624
 20
256.9577043670001
 30
0.0
 10
-21.83115174849419
 20
256.9497222661818
 30
0.0
 11
-21.74227242935555
 21
256.9874985250858
 31
0.0
 11
-21.76176973220273
 21
256.9923768190386
 31
0.0
 11
-21.78472297142337
 21
256.9871703733211
 31
0.0
 11
-21.80869787612284
 21
256.97243101239
 31
0.0
 11
-21.83115174849419
 21
256.9497222661818
 31
0.0
  0
SPLINE
  5
22D
330
1F
100
AcDbEntity
  8
0
  6
Continuous
 62
     7
100
AcDbSpline
210
0.0
220
0.0
230
1.0
 70
     8
 71
     3
 72
     9
 73
     5
 74
     3
 42
0.000000001
 43
0.0000000001
 44
0.00000001
 40
0.0
 40
0.0
 40
0.0
 40
0.0
 40
0.0287065367195433
 40
0.0522324369009246
 40
0.0522324369009246
 40
0.0522324369009246
 40
0.0522324369009246
 10
-21.72423425485854
 20
256.9418544618862
 30
0.0
 10
-21.72477496621412
 20
256.9518025986254
 30
0.0
 10
-21.72575882539176
 20
256.9699035368759
 30
0.0
 10
-21.7383838067312
 20
256.9827024452804
 30
0.0
 10
-21.74407020483485
 20
256.98846716952
 30
0.0
 11
-21.72423425485854
 21
256.9418544618862
 31
0.0
 11
-21.7293726182876
 21
256.9700973833411
 31
0.0
 11
-21.74407020483485
 21
256.98846716952
 31
0.0
  0
SPLINE
  5
22E
330
1F
100
AcDbEntity
  8
0
  6
Continuous
 62
     7
100
AcDbSpline
210
0.0
220
0.0
230
1.0
 70
     8
 71
     3
 72
     9
 73
     5
 74
     3
 42
0.000000001
 43
0.0000000001
 44
0.00000001
 40
0.0
 40
0.0
 40
0.0
 40
0.0
 40
0.0298421770601401
 40
0.054184751054773
 40
0.054184751054773
 40
0.054184751054773
 40
0.054184751054773
 10
-21.72069872095263
 20
256.9398132204339
 30
0.0
 10
-21.72128568740527
 20
256.9502062378826
 30
0.0
 10
-21.72235146628228
 20
256.9690769412636
 30
0.0
 10
-21.73609715344454
 20
256.9817880478735
 30
0.0
 10
-21.74227242935555
 20
256.9874985250858
 30
0.0
 11
-21.72069872095263
 21
256.9398132204339
 31
0.0
 11
-21.72630575199758
 21
256.9691239162603
 31
0.0
 11
-21.74227242935555
 21
256.9874985250858
 31
0.0
  0
SPLINE
  5
22F
330
1F
100
AcDbEntity
  8
0
  6
Continuous
 62
     7
100
AcDbSpline
210
0.0
220
0.0
230
1.0
 70
     8
 71
     3
 72
    13
 73
     9
 74
     7
 42
0.000000001
 43
0.0000000001
 44
0.00000001
 40
0.0
 40
0.0
 40
0.0
 40
0.0
 40
0.0243335044090584
 40
0.053870195085556
 40
0.0878197068455445
 40
0.1238964703384206
 40
0.1592468483807135
 40
0.1912028705824578
 40
0.1912028705824578
 40
0.1912028705824578
 40
0.1912028705824578
 10
-21.83468728240015
 20
255.7454545034444
 30
0.0
 10
-21.82649616888002
 20
255.7461273687366
 30
0.0
 10
-21.80836245526445
 20
255.7476169933061
 30
0.0
 10
-21.78309013727642
 20
255.7642020321579
 30
0.0
 10
-21.75962696628406
 20
255.7877367696086
 30
0.0
 10
-21.74067263115419
 20
255.8175757063819
 30
0.0
 10
-21.7272777661479
 20
255.849792348026
 30
0.0
 10
-21.72521406206754
 20
255.8722440179778
 30
0.0
 10
-21.72423425485854
 20
255.8829037195602
 30
0.0
 11
-21.83468728240015
 21
255.7454545034444
 31
0.0
 11
-21.81065080968841
 21
255.7492449636118
 31
0.0
 11
-21.78507616091971
 21
255.7640217707727
 31
0.0
 11
-21.76104651548638
 21
255.788003962273
 31
0.0
 11
-21.74145865337845
 21
255.8182999771189
 31
0.0
 11
-21.72867427275651
 21
255.8512576561741
 31
0.0
 11
-21.72423425485854
 21
255.8829037195602
 31
0.0
  0
SPLINE
  5
230
330
1F
100
AcDbEntity
  8
0
  6
Continuous
 62
     7
100
AcDbSpline
210
0.0
220
0.0
230
1.0
 70
     8
 71
     3
 72
    13
 73
     9
 74
     7
 42
0.000000001
 43
0.0000000001
 44
0.00000001
 40
0.0
 40
0.0
 40
0.0
 40
0.0
 40
0.0243335044090137
 40
0.0538701950854767
 40
0.0878197068454627
 40
0.1238964703383388
 40
0.1592468483806594
 40
0.1912028705824047
 40
0.1912028705824047
 40
0.1912028705824047
 40
0.1912028705824047
 10
-21.83115174849419
 20
255.7434132619921
 30
0.0
 10
-21.82296063497407
 20
255.7440861272843
 30
0.0
 10
-21.80482692135854
 20
255.7455757518539
 30
0.0
 10
-21.77955460337051
 20
255.7621607907056
 30
0.0
 10
-21.75609143237816
 20
255.7856955281562
 30
0.0
 10
-21.73713709724828
 20
255.8155344649297
 30
0.0
 10
-21.723742232242
 20
255.8477511065736
 30
0.0
 10
-21.72167852816164
 20
255.8702027765255
 30
0.0
 10
-21.72069872095263
 20
255.8808624781079
 30
0.0
 11
-21.83115174849419
 21
255.7434132619921
 31
0.0
 11
-21.8071152757825
 21
255.7472037221596
 31
0.0
 11
-21.7815406270138
 21
255.7619805293203
 31
0.0
 11
-21.75751098158048
 21
255.7859627208207
 31
0.0
 11
-21.73792311947255
 21
255.8162587356666
 31
0.0
 11
-21.72513873885061
 21
255.8492164147218
 31
0.0
 11
-21.72069872095263
 21
255.8808624781079
 31
0.0
  0
SPLINE
  5
231
330
1F
100
AcDbEntity
  8
0
  6
Continuous
 62
     7
100
AcDbSpline
210
0.0
220
0.0
230
1.0
 70
     8
 71
     3
 72
    11
 73
     7
 74
     5
 42
0.000000001
 43
0.0000000001
 44
0.00000001
 40
0.0
 40
0.0
 40
0.0
 40
0.0
 40
0.025269148223667
 40
0.0566280869921338
 40
0.0944643071503942
 40
0.1358027812876668
 40
0.1358027812876668
 40
0.1358027812876668
 40
0.1358027812876668
 10
-21.55354729489877
 20
255.7231163902945
 30
0.0
 10
-21.54512985425617
 20
255.7211201424699
 30
0.0
 10
-21.526266393091
 20
255.716646572023
 30
0.0
 10
-21.49646410837952
 20
255.7317634191643
 30
0.0
 10
-21.46869679072965
 20
255.7560658823945
 30
0.0
 10
-21.45486601611436
 20
255.7787831644014
 30
0.0
 10
-21.44764473457158
 20
255.7906442528929
 30
0.0
 11
-21.55354729489877
 21
255.7231163902945
 31
0.0
 11
-21.5284936959076
 21
255.7198228747452
 31
0.0
 11
-21.49942106841771
 21
255.7315772749828
 31
0.0
 11
-21.47096025094445
 21
255.7565084120181
 31
0.0
 11
-21.44764473457158
 21
255.7906442528929
 31
0.0
  0
SPLINE
  5
232
330
1F
100
AcDbEntity
  8
0
  6
Continuous
 62
     7
100
AcDbSpline
210
0.0
220
0.0
230
1.0
 70
     8
 71
     3
 72
     9
 73
     5
 74
     3
 42
0.000000001
 43
0.0000000001
 44
0.00000001
 40
0.0
 40
0.0
 40
0.0
 40
0.0
 40
0.0298421899145731
 40
0.0541847743946522
 40
0.0541847743946522
 40
0.0541847743946522
 40
0.0541847743946522
 10
-21.57338325415488
 20
255.7697291184909
 30
0.0
 10
-21.57279628744941
 20
255.7593360965654
 30
0.0
 10
-21.57173050811334
 20
255.7404653850559
 30
0.0
 10
-21.55798481503006
 20
255.7277542729709
 30
0.0
 10
-21.55180953645904
 20
255.7220437932988
 30
0.0
 11
-21.57338325415488
 21
255.7697291184909
 31
0.0
 11
-21.56777622069469
 21
255.740418410039
 31
0.0
 11
-21.55180953645904
 21
255.7220437932988
 31
0.0
  0
SPLINE
  5
233
330
1F
100
AcDbEntity
  8
0
  6
Continuous
 62
     7
100
AcDbSpline
210
0.0
220
0.0
230
1.0
 70
     8
 71
     3
 72
    11
 73
     7
 74
     5
 42
0.000000001
 43
0.0000000001
 44
0.00000001
 40
0.0
 40
0.0
 40
0.0
 40
0.0
 40
0.0254993105299887
 40
0.0571312485634117
 40
0.0955808719441303
 40
0.1377645616271894
 40
0.1377645616271894
 40
0.1377645616271894
 40
0.1377645616271894
 10
-21.55180953645904
 20
255.7220437932988
 30
0.0
 10
-21.54340793889214
 20
255.7195874803635
 30
0.0
 10
-21.52458414325405
 20
255.7140841219471
 30
0.0
 10
-21.49398983442248
 20
255.728913171383
 30
0.0
 10
-21.46562321040992
 20
255.7533796308631
 30
0.0
 10
-21.45149831368957
 20
255.7765048028055
 30
0.0
 10
-21.44410881321314
 20
255.7886028466686
 30
0.0
 11
-21.55180953645904
 21
255.7220437932988
 31
0.0
 11
-21.52671166615325
 21
255.7175369127886
 31
0.0
 11
-21.49713456734991
 21
255.7287518717661
 31
0.0
 11
-21.46798764169711
 21
255.7538283633942
 31
0.0
 11
-21.44410881321314
 21
255.7886028466686
 31
0.0
  0
SPLINE
  5
234
330
1F
100
AcDbEntity
  8
0
  6
Continuous
 62
     7
100
AcDbSpline
210
0.0
220
0.0
230
1.0
 70
     8
 71
     3
 72
     9
 73
     5
 74
     3
 42
0.000000001
 43
0.0000000001
 44
0.00000001
 40
0.0
 40
0.0
 40
0.0
 40
0.0
 40
0.007880951497386
 40
0.0160916988788326
 40
0.0160916988788326
 40
0.0160916988788326
 40
0.0160916988788326
 10
-22.28838107573196
 20
255.7872470704139
 30
0.0
 10
-22.28601440982237
 20
255.7860635873873
 30
0.0
 10
-22.28118203267632
 20
255.7836471144081
 30
0.0
 10
-22.27582745856555
 20
255.7829116461046
 30
0.0
 10
-22.27309529860755
 20
255.7825363851113
 30
0.0
 11
-22.28838107573196
 21
255.7872470704139
 31
0.0
 11
-22.28115582124643
 21
255.7840998317249
 31
0.0
 11
-22.27309529860755
 21
255.7825363851113
 31
0.0
  0
SPLINE
  5
235
330
1F
100
AcDbEntity
  8
0
  6
Continuous
 62
     7
100
AcDbSpline
210
0.0
220
0.0
230
1.0
 70
     8
 71
     3
 72
    11
 73
     7
 74
     5
 42
0.000000001
 43
0.0000000001
 44
0.00000001
 40
0.0
 40
0.0
 40
0.0
 40
0.0
 40
0.0158820179489306
 40
0.033782315869436
 40
0.0658581887583218
 40
0.1037533057409917
 40
0.1037533057409917
 40
0.1037533057409917
 40
0.1037533057409917
 10
-22.28838505723248
 20
256.2576421593541
 30
0.0
 10
-22.2833964297167
 20
256.255633282381
 30
0.0
 10
-22.27278521818167
 20
256.2513602549863
 30
0.0
 10
-22.25029877186782
 20
256.2547118626806
 30
0.0
 10
-22.22387241058502
 20
256.2686630027251
 30
0.0
 10
-22.20806465823584
 20
256.2860181750035
 30
0.0
 10
-22.19950344768093
 20
256.2954174502946
 30
0.0
 11
-22.28838505723248
 21
256.2576421593541
 31
0.0
 11
-22.27321509370163
 21
256.2529399421543
 31
0.0
 11
-22.25539976822366
 21
256.2546820912142
 31
0.0
 11
-22.22672265022855
 21
256.2690516688041
 31
0.0
 11
-22.19950344768093
 21
256.2954174502946
 31
0.0
  0
SPLINE
  5
236
330
1F
100
AcDbEntity
  8
0
  6
Continuous
 62
     7
100
AcDbSpline
210
0.0
220
0.0
230
1.0
 70
     8
 71
     3
 72
    13
 73
     9
 74
     7
 42
0.000000001
 43
0.0000000001
 44
0.00000001
 40
0.0
 40
0.0
 40
0.0
 40
0.0
 40
0.0054338208454253
 40
0.0120011263023036
 40
0.0182215066627552
 40
0.0247219865243908
 40
0.0415418324896573
 40
0.0547221346446359
 40
0.0547221346446359
 40
0.0547221346446359
 40
0.0547221346446359
 10
-22.28838306000736
 20
256.0224446264536
 30
0.0
 10
-22.28677129677611
 20
256.0216103820232
 30
0.0
 10
-22.28321155309801
 20
256.0197678850754
 30
0.0
 10
-22.27730422149743
 20
256.0181597687611
 30
0.0
 10
-22.27089640476239
 20
256.0174367783346
 30
0.0
 10
-22.26102972423558
 20
256.0178005932133
 30
0.0
 10
-22.24904732821899
 20
256.0208868237227
 30
0.0
 10
-22.24019052787927
 20
256.0255536232467
 30
0.0
 10
-22.23629937314424
 20
256.0276039467537
 30
0.0
 11
-22.28838306000736
 21
256.0224446264536
 31
0.0
 11
-22.28347991516778
 21
256.0201024876307
 31
0.0
 11
-22.27716470025538
 21
256.018300375891
 31
0.0
 11
-22.2709840150259
 21
256.0175987436244
 31
0.0
 11
-22.26448678741027
 21
256.0178043878417
 31
0.0
 11
-22.24816423995669
 21
256.0218641544749
 31
0.0
 11
-22.23629937314424
 21
256.0276039467537
 31
0.0
  0
SPLINE
  5
237
330
1F
100
AcDbEntity
  8
0
  6
Continuous
 62
     7
100
AcDbSpline
210
0.0
220
0.0
230
1.0
 70
     8
 71
     3
 72
    13
 73
     9
 74
     7
 42
0.000000001
 43
0.0000000001
 44
0.00000001
 40
0.0
 40
0.0
 40
0.0
 40
0.0
 40
0.0405849723493394
 40
0.0798084340202855
 40
0.114067757435731
 40
0.1417539216866247
 40
0.1499645015380633
 40
0.1578453052468081
 40
0.1578453052468081
 40
0.1578453052468081
 40
0.1578453052468081
 10
-22.27309529860755
 20
256.4002866878134
 30
0.0
 10
-22.28087441114002
 20
256.3891506391185
 30
0.0
 10
-22.29617166255014
 20
256.3672521212715
 30
0.0
 10
-22.30852830043115
 20
256.3307544645851
 30
0.0
 10
-22.31161613929197
 20
256.2967879818501
 30
0.0
 10
-22.30455419911384
 20
256.2734107633028
 30
0.0
 10
-22.29504999677034
 20
256.262110238639
 30
0.0
 10
-22.29057614393505
 20
256.2591110274655
 30
0.0
 10
-22.28838505723248
 20
256.2576421593541
 30
0.0
 11
-22.27309529860755
 21
256.4002866878134
 31
0.0
 11
-22.29471244833592
 21
256.3659379163548
 31
0.0
 11
-22.30743706505384
 21
256.3288358402016
 31
0.0
 11
-22.30933121338456
 21
256.2946289193438
 31
0.0
 11
-22.30010733637551
 21
256.2685244415464
 31
0.0
 11
-22.29472316829315
 21
256.2623256982261
 31
0.0
 11
-22.28838505723248
 21
256.2576421593541
 31
0.0
  0
SPLINE
  5
238
330
1F
100
AcDbEntity
  8
0
  6
Continuous
 62
     7
100
AcDbSpline
210
0.0
220
0.0
230
1.0
 70
     8
 71
     3
 72
    13
 73
     9
 74
     7
 42
0.000000001
 43
0.0000000001
 44
0.00000001
 40
0.0
 40
0.0
 40
0.0
 40
0.0
 40
0.0362217544035657
 40
0.0763466357015658
 40
0.1164714678654382
 40
0.1526930891398867
 40
0.1825350587250939
 40
0.2068774929713088
 40
0.2068774929713088
 40
0.2068774929713088
 40
0.2068774929713088
 10
-22.23629937314424
 20
256.1977074011136
 30
0.0
 10
-22.24613650826412
 20
256.1905828810147
 30
0.0
 10
-22.26687078476781
 20
256.1755661183644
 30
0.0
 10
-22.28952836631041
 20
256.1433392350081
 30
0.0
 10
-22.30553620105392
 20
256.1075515297297
 30
0.0
 10
-22.31145451363086
 20
256.0727199701714
 30
0.0
 10
-22.30805605028029
 20
256.040799515137
 30
0.0
 10
-22.29448146918659
 20
256.0281344321614
 30
0.0
 10
-22.28838306000736
 20
256.0224446264536
 30
0.0
 11
-22.23629937314424
 21
256.1977074011136
 31
0.0
 11
-22.26448671182055
 21
256.1749590173929
 31
0.0
 11
-22.28838294206204
 21
256.1427258644393
 31
0.0
 11
-22.30434962846367
 21
256.1059146286307
 31
0.0
 11
-22.30995666268446
 21
256.0701296179899
 31
0.0
 11
-22.30434965977391
 21
256.0408191219887
 31
0.0
 11
-22.28838306000736
 21
256.0224446264536
 31
0.0
  0
SPLINE
  5
239
330
1F
100
AcDbEntity
  8
0
  6
Continuous
 62
     7
100
AcDbSpline
210
0.0
220
0.0
230
1.0
 70
     8
 71
     3
 72
    11
 73
     7
 74
     5
 42
0.000000001
 43
0.0000000001
 44
0.00000001
 40
0.0
 40
0.0
 40
0.0
 40
0.0
 40
0.0149558809639956
 40
0.0317827555764752
 40
0.0638586284246515
 40
0.101753745505203
 40
0.101753745505203
 40
0.101753745505203
 40
0.101753745505203
 10
-22.29012275640243
 20
256.2587147227129
 30
0.0
 10
-22.28535003689747
 20
256.2570576117677
 30
0.0
 10
-22.27520752320123
 20
256.2535360978562
 30
0.0
 10
-22.25354101163056
 20
256.2569176198466
 30
0.0
 10
-22.22739681369447
 20
256.2707064717412
 30
0.0
 10
-22.21159628174486
 20
256.2880601990109
 30
0.0
 10
-22.20303898158684
 20
256.297458691747
 30
0.0
 11
-22.29012275640243
 21
256.2587147227129
 31
0.0
 11
-22.27566265100361
 21
256.2548958406119
 31
0.0
 11
-22.25893530212952
 21
256.2567233326665
 31
0.0
 11
-22.23025818413442
 21
256.2710929102564
 31
0.0
 11
-22.20303898158684
 21
256.297458691747
 31
0.0
  0
SPLINE
  5
23A
330
1F
100
AcDbEntity
  8
0
  6
Continuous
 62
     7
100
AcDbSpline
210
0.0
220
0.0
230
1.0
 70
     8
 71
     3
 72
     9
 73
     5
 74
     3
 42
0.000000001
 43
0.0000000001
 44
0.00000001
 40
0.0
 40
0.0
 40
0.0
 40
0.0
 40
0.0068910499962778
 40
0.0140604088050829
 40
0.0140604088050829
 40
0.0140604088050829
 40
0.0140604088050829
 10
-22.29011889266584
 20
255.7883197017619
 30
0.0
 10
-22.28800357995512
 20
255.7873927580881
 30
0.0
 10
-22.28368751712751
 20
255.7855014531048
 30
0.0
 10
-22.27901389844916
 20
255.7848895991399
 30
0.0
 10
-22.27663083251357
 20
255.7845776265637
 30
0.0
 11
-22.29011889266584
 21
255.7883197017619
 31
0.0
 11
-22.28368706577883
 21
255.785846205053
 31
0.0
 11
-22.27663083251357
 21
255.7845776265637
 31
0.0
  0
SPLINE
  5
23B
330
1F
100
AcDbEntity
  8
0
  6
Continuous
 62
     7
100
AcDbSpline
210
0.0
220
0.0
230
1.0
 70
     8
 71
     3
 72
    11
 73
     7
 74
     5
 42
0.000000001
 43
0.0000000001
 44
0.00000001
 40
0.0
 40
0.0
 40
0.0
 40
0.0
 40
0.0127895896891267
 40
0.0226200312955657
 40
0.0394398753729014
 40
0.0526201747565095
 40
0.0526201747565095
 40
0.0526201747565095
 40
0.0526201747565095
 10
-22.29012021867535
 20
256.0235167587193
 30
0.0
 10
-22.28608496529698
 20
256.0220108571959
 30
0.0
 10
-22.2789480980699
 20
256.0193474898849
 30
0.0
 10
-22.26562170328535
 20
256.019618491948
 30
0.0
 10
-22.25259124840795
 20
256.0229147651463
 30
0.0
 10
-22.24372862135642
 20
256.0275908048076
 30
0.0
 10
-22.23983490705015
 20
256.029645188206
 30
0.0
 11
-22.29012021867535
 21
256.0235167587193
 31
0.0
 11
-22.2778526138718
 21
256.0199001948704
 31
0.0
 11
-22.26802232131617
 21
256.019845629294
 31
0.0
 11
-22.25169977386228
 21
256.0239053959274
 31
0.0
 11
-22.23983490705015
 21
256.029645188206
 31
0.0
  0
SPLINE
  5
23C
330
1F
100
AcDbEntity
  8
0
  6
Continuous
 62
     7
100
AcDbSpline
210
0.0
220
0.0
230
1.0
 70
     8
 71
     3
 72
    15
 73
    11
 74
     9
 42
0.000000001
 43
0.0000000001
 44
0.00000001
 40
0.0
 40
0.0
 40
0.0
 40
0.0
 40
0.0276863091715386
 40
0.0619457805544996
 40
0.1011693187769396
 40
0.1417542668640037
 40
0.1796492744683739
 40
0.2117249993216277
 40
0.2296250688928359
 40
0.2455069249942743
 40
0.2455069249942743
 40
0.2455069249942743
 40
0.2455069249942743
 10
-22.19950344768093
 20
255.9723821725154
 30
0.0
 10
-22.20882152095521
 20
255.9714023857783
 30
0.0
 10
-22.22966991967202
 20
255.9692101787916
 30
0.0
 10
-22.25771002387477
 20
255.9482572758166
 30
0.0
 10
-22.28265205729737
 20
255.9195528223961
 30
0.0
 10
-22.30115089664706
 20
255.884485414884
 30
0.0
 10
-22.3108024374582
 20
255.8485124375772
 30
0.0
 10
-22.30999943374918
 20
255.8187800432644
 30
0.0
 10
-22.30161501843397
 20
255.7976134301632
 30
0.0
 10
-22.29261312881739
 20
255.7905620993487
 30
0.0
 10
-22.28838107573196
 20
255.7872470704139
 30
0.0
 11
-22.19950344768093
 21
255.9723821725154
 31
0.0
 11
-22.22672265022854
 21
255.96731792617
 31
0.0
 11
-22.2553997682236
 21
255.9485740201717
 31
0.0
 11
-22.28116891690544
 21
255.9190031399286
 31
0.0
 11
-22.30010733637553
 21
255.8831078168251
 31
0.0
 11
-22.30933121338457
 21
255.8463525232793
 31
0.0
 11
-22.30743706505391
 21
255.8143327765187
 31
0.0
 11
-22.30003819768374
 21
255.7980334081592
 31
0.0
 11
-22.28838107573196
 21
255.7872470704139
 31
0.0
  0
SPLINE
  5
23D
330
1F
100
AcDbEntity
  8
0
  6
Continuous
 62
     7
100
AcDbSpline
210
0.0
220
0.0
230
1.0
 70
     8
 71
     3
 72
    15
 73
    11
 74
     9
 42
0.000000001
 43
0.0000000001
 44
0.00000001
 40
0.0
 40
0.0
 40
0.0
 40
0.0
 40
0.0276863091715038
 40
0.0619457805544078
 40
0.1011693187768082
 40
0.1417542668638457
 40
0.1796492744682521
 40
0.2117249993215046
 40
0.2296250688927587
 40
0.2455069249942712
 40
0.2455069249942712
 40
0.2455069249942712
 40
0.2455069249942712
 10
-21.16830139411794
 20
257.7247906900691
 30
0.0
 10
-21.1776194673922
 20
257.7238109033319
 30
0.0
 10
-21.19846786610898
 20
257.7216186963453
 30
0.0
 10
-21.22650797031182
 20
257.7006657933704
 30
0.0
 10
-21.25145000373431
 20
257.6719613399499
 30
0.0
 10
-21.26994884308395
 20
257.6368939324379
 30
0.0
 10
-21.27960038389513
 20
257.600920955131
 30
0.0
 10
-21.2787973801861
 20
257.5711885608183
 30
0.0
 10
-21.27041296487095
 20
257.550021947717
 30
0.0
 10
-21.26141107525431
 20
257.5429706169025
 30
0.0
 10
-21.25717902216885
 20
257.5396555879677
 30
0.0
 11
-21.16830139411794
 21
257.7247906900691
 31
0.0
 11
-21.19552059666552
 21
257.7197264437237
 31
0.0
 11
-21.22419771466062
 21
257.7009825377256
 31
0.0
 11
-21.24996686334239
 21
257.6714116574825
 31
0.0
 11
-21.26890528281242
 21
257.6355163343789
 31
0.0
 11
-21.2781291598215
 21
257.5987610408332
 31
0.0
 11
-21.27623501149086
 21
257.5667412940725
 31
0.0
 11
-21.26883614412071
 21
257.550441925713
 31
0.0
 11
-21.25717902216885
 21
257.5396555879677
 31
0.0
  0
SPLINE
  5
23E
330
1F
100
AcDbEntity
  8
0
  6
Continuous
 62
     7
100
AcDbSpline
210
0.0
220
0.0
230
1.0
 70
     8
 71
     3
 72
     9
 73
     5
 74
     3
 42
0.000000001
 43
0.0000000001
 44
0.00000001
 40
0.0
 40
0.0
 40
0.0
 40
0.0
 40
0.0078809514973484
 40
0.0160916988787369
 40
0.0160916988787369
 40
0.0160916988787369
 40
0.0160916988787369
 10
-21.25717902216885
 20
257.5396555879677
 30
0.0
 10
-21.25481235625929
 20
257.5384721049411
 30
0.0
 10
-21.24997997911331
 20
257.5360556319617
 30
0.0
 10
-21.24462540500256
 20
257.5353201636584
 30
0.0
 10
-21.24189324504456
 20
257.5349449026651
 30
0.0
 11
-21.25717902216885
 21
257.5396555879677
 31
0.0
 11
-21.2499537676834
 21
257.5365083492786
 31
0.0
 11
-21.24189324504456
 21
257.5349449026651
 31
0.0
  0
SPLINE
  5
23F
330
1F
100
AcDbEntity
  8
0
  6
Continuous
 62
     7
100
AcDbSpline
210
0.0
220
0.0
230
1.0
 70
     8
 71
     3
 72
     9
 73
     5
 74
     3
 42
0.000000001
 43
0.0000000001
 44
0.00000001
 40
0.0
 40
0.0
 40
0.0
 40
0.0
 40
0.006891049996241
 40
0.0140604088049961
 40
0.0140604088049961
 40
0.0140604088049961
 40
0.0140604088049961
 10
-21.25891683910279
 20
257.5407282193156
 30
0.0
 10
-21.25680152639209
 20
257.5398012756418
 30
0.0
 10
-21.25248546356448
 20
257.5379099706585
 30
0.0
 10
-21.24781184488617
 20
257.5372981166938
 30
0.0
 10
-21.24542877895058
 20
257.5369861441175
 30
0.0
 11
-21.25891683910279
 21
257.5407282193156
 31
0.0
 11
-21.2524850122158
 21
257.5382547226068
 31
0.0
 11
-21.24542877895058
 21
257.5369861441175
 31
0.0
  0
SPLINE
  5
240
330
1F
100
AcDbEntity
  8
0
  6
Continuous
 62
     7
100
AcDbSpline
210
0.0
220
0.0
230
1.0
 70
     8
 71
     3
 72
    21
 73
    17
 74
    15
 42
0.000000001
 43
0.0000000001
 44
0.00000001
 40
0.0
 40
0.0
 40
0.0
 40
0.0
 40
0.0119198734757045
 40
0.0212998910130737
 40
0.0350972389110075
 40
0.0462865341530994
 40
0.0674515652553174
 40
0.0909695101058403
 40
0.1046662478704846
 40
0.1159036683489775
 40
0.1272305276524794
 40
0.1417262436764803
 40
0.1593165351776759
 40
0.1762871165354604
 40
0.1902085506965977
 40
0.2076969606618304
 40
0.2076969606618304
 40
0.2076969606618304
 40
0.2076969606618304
 10
-21.44764279087908
 20
257.3537886360435
 30
0.0
 10
-21.45130031994925
 20
257.3554338656879
 30
0.0
 10
-21.45783604430583
 20
257.3583737516149
 30
0.0
 10
-21.46969171717311
 20
257.3590140415407
 30
0.0
 10
-21.48106954339395
 20
257.3570501720651
 30
0.0
 10
-21.49548985281456
 20
257.3515252366
 30
0.0
 10
-21.51144670927333
 20
257.3416405130165
 30
0.0
 10
-21.52591423809884
 20
257.3284920928212
 30
0.0
 10
-21.53650544550248
 20
257.3162784433956
 30
0.0
 10
-21.54373514035074
 20
257.3065811337004
 30
0.0
 10
-21.550477131481
 20
257.2962201070529
 30
0.0
 10
-21.55748812640844
 20
257.2835446117261
 30
0.0
 10
-21.56411714281336
 20
257.2685611124477
 30
0.0
 10
-21.56906588327942
 20
257.2531557428313
 30
0.0
 10
-21.5725668974096
 20
257.237361647063
 30
0.0
 10
-21.57309161863048
 20
257.2268848285494
 30
0.0
 10
-21.57338376728236
 20
257.2210515326196
 30
0.0
 11
-21.44764279087908
 21
257.3537886360435
 31
0.0
 11
-21.45882185592584
 21
257.3579253118543
 31
0.0
 11
-21.46817405155044
 21
257.3586472684355
 31
0.0
 11
-21.48179116584705
 21
257.3564244400947
 31
0.0
 11
-21.49226895613199
 21
257.3524980901487
 31
0.0
 11
-21.51039600365704
 21
257.3415724935019
 31
0.0
 11
-21.52791374082855
 21
257.3258810118182
 31
0.0
 11
-21.5368984864107
 21
257.3155429767589
 31
0.0
 11
-21.54361960751609
 21
257.3065370815412
 31
0.0
 11
-21.54979917206339
 21
257.2970444147446
 31
0.0
 11
-21.55681570383685
 21
257.2843600123222
 31
0.0
 11
-21.56390493482355
 21
257.2682615291685
 31
0.0
 11
-21.56910015429414
 21
257.2521057154366
 31
0.0
 11
-21.57196535643003
 21
257.2384823202252
 31
0.0
 11
-21.57338376728236
 21
257.2210515326196
 31
0.0
  0
SPLINE
  5
241
330
1F
100
AcDbEntity
  8
0
  6
Continuous
 62
     7
100
AcDbSpline
210
0.0
220
0.0
230
1.0
 70
     8
 71
     3
 72
     9
 73
     5
 74
     3
 42
0.000000001
 43
0.0000000001
 44
0.00000001
 40
0.0
 40
0.0
 40
0.0
 40
0.0
 40
0.0298419755076434
 40
0.0541844130933796
 40
0.0541844130933796
 40
0.0541844130933796
 40
0.0541844130933796
 10
-21.42606918820197
 20
257.3061036445072
 30
0.0
 10
-21.42665615415443
 20
257.3164965918103
 30
0.0
 10
-21.42772193267398
 20
257.3353671775784
 30
0.0
 10
-21.44146754477671
 20
257.3480781951942
 30
0.0
 10
-21.44764279087908
 20
257.3537886360435
 30
0.0
 11
-21.42606918820197
 21
257.3061036445072
 31
0.0
 11
-21.43167619111252
 21
257.3354141405084
 31
0.0
 11
-21.44764279087908
 21
257.3537886360435
 31
0.0
  0
SPLINE
  5
242
330
1F
100
AcDbEntity
  8
0
  6
Continuous
 62
     7
100
AcDbSpline
210
0.0
220
0.0
230
1.0
 70
     8
 71
     3
 72
     9
 73
     5
 74
     3
 42
0.000000001
 43
0.0000000001
 44
0.00000001
 40
0.0
 40
0.0
 40
0.0
 40
0.0
 40
0.0287263069714712
 40
0.0522327447235414
 40
0.0522327447235414
 40
0.0522327447235414
 40
0.0522327447235414
 10
-21.42960472210788
 20
257.3081448859596
 30
0.0
 10
-21.43014643847302
 20
257.3181002774418
 30
0.0
 10
-21.4311314537355
 20
257.3362020559308
 30
0.0
 10
-21.44375836302708
 20
257.3489986737101
 30
0.0
 10
-21.44944089106289
 20
257.3547575641229
 30
0.0
 11
-21.42960472210788
 21
257.3081448859596
 31
0.0
 11
-21.43475113746243
 21
257.3364064369068
 31
0.0
 11
-21.44944089106289
 21
257.3547575641229
 31
0.0
  0
SPLINE
  5
243
330
1F
100
AcDbEntity
  8
0
  6
Continuous
 62
     7
100
AcDbSpline
210
0.0
220
0.0
230
1.0
 70
     8
 71
     3
 72
     9
 73
     5
 74
     3
 42
0.000000001
 43
0.0000000001
 44
0.00000001
 40
0.0
 40
0.0
 40
0.0
 40
0.0
 40
0.0021220847818661
 40
0.0042389421361834
 40
0.0042389421361834
 40
0.0042389421361834
 40
0.0042389421361834
 10
-20.96608582594947
 20
256.0645895470441
 30
0.0
 10
-20.96551394961126
 20
256.0641725382697
 30
0.0
 10
-20.9643715943862
 20
256.0633395644552
 30
0.0
 10
-20.96315818719829
 20
256.0626139908767
 30
0.0
 10
-20.96255222640726
 20
256.0622516598792
 30
0.0
 11
-20.96608582594947
 21
256.0645895470441
 31
0.0
 11
-20.96435238433284
 21
256.0633654452212
 31
0.0
 11
-20.96255222640726
 21
256.0622516598792
 31
0.0
  0
SPLINE
  5
244
330
1F
100
AcDbEntity
  8
0
  6
Continuous
 62
     7
100
AcDbSpline
210
0.0
220
0.0
230
1.0
 70
     8
 71
     3
 72
    23
 73
    19
 74
    17
 42
0.000000001
 43
0.0000000001
 44
0.00000001
 40
0.0
 40
0.0
 40
0.0
 40
0.0
 40
0.0104173200308483
 40
0.0213059956296112
 40
0.0351033435334523
 40
0.0462926387546912
 40
0.0555516098155944
 40
0.0676350878648471
 40
0.0791065190306071
 40
0.0910258542896498
 40
0.1047225920797315
 40
0.1159600125831416
 40
0.1290901260522342
 40
0.1417828221375367
 40
0.156652809710155
 40
0.176342379808056
 40
0.1950212690493149
 40
0.2077533755189555
 40
0.2077533755189555
 40
0.2077533755189555
 40
0.2077533755189555
 10
-20.26912615823559
 20
257.6418335630877
 30
0.0
 10
-20.27229879455672
 20
257.643305914641
 30
0.0
 10
-20.27878762398298
 20
257.6463172255706
 30
0.0
 10
-20.29068110218693
 20
257.6471506482731
 30
0.0
 10
-20.30255082836668
 20
257.6450938037635
 30
0.0
 10
-20.31325563900433
 20
257.6409957507828
 30
0.0
 10
-20.32285768315272
 20
257.6359246855289
 30
0.0
 10
-20.33195107008455
 20
257.6298027888843
 30
0.0
 10
-20.34108254096079
 20
257.6222676505688
 30
0.0
 10
-20.34993208800251
 20
257.6136161617045
 30
0.0
 10
-20.35798905888222
 20
257.6043226616499
 30
0.0
 10
-20.36557781939439
 20
257.5941441964262
 30
0.0
 10
-20.37226910149793
 20
257.5837458615378
 30
0.0
 10
-20.3787802078941
 20
257.5718351619161
 30
0.0
 10
-20.38526762018282
 20
257.5574588255812
 30
0.0
 10
-20.39085640980168
 20
257.5405839547353
 30
0.0
 10
-20.3943040666331
 20
257.5238154902013
 30
0.0
 10
-20.39470473408219
 20
257.5133418404162
 30
0.0
 10
-20.39486713463887
 20
257.5090964596638
 30
0.0
 11
-20.26912615823559
 21
257.6418335630877
 31
0.0
 11
-20.27881857261407
 21
257.645651655856
 31
0.0
 11
-20.28965741890695
 21
257.6466921954798
 31
0.0
 11
-20.30327453320517
 21
257.6444693671385
 31
0.0
 11
-20.31375232348844
 21
257.640543017193
 31
0.0
 11
-20.32195154990851
 21
257.6362417121991
 31
0.0
 11
-20.33199851573394
 21
257.6295283738652
 31
0.0
 11
-20.34086149075254
 21
257.6222454210522
 31
0.0
 11
-20.34939710818517
 21
257.6139259388624
 31
0.0
 11
-20.35838185376691
 21
257.6035879038034
 31
0.0
 11
-20.36510297487265
 21
257.5945820085854
 31
0.0
 11
-20.37221091576313
 21
257.5835422144648
 31
0.0
 11
-20.37829907119336
 21
257.5724049393664
 31
0.0
 11
-20.38439916142166
 21
257.5588437657476
 31
0.0
 11
-20.39058352165065
 21
257.5401506424809
 31
0.0
 11
-20.39409756861761
 21
257.5218052809904
 31
0.0
 11
-20.39486713463887
 21
257.5090964596638
 31
0.0
  0
SPLINE
  5
245
330
1F
100
AcDbEntity
  8
0
  6
Continuous
 62
     7
100
AcDbSpline
210
0.0
220
0.0
230
1.0
 70
     8
 71
     3
 72
     9
 73
     5
 74
     3
 42
0.000000001
 43
0.0000000001
 44
0.00000001
 40
0.0
 40
0.0
 40
0.0
 40
0.0
 40
0.0298420421982234
 40
0.0541845061845115
 40
0.0541845061845115
 40
0.0541845061845115
 40
0.0541845061845115
 10
-20.54218175543925
 20
257.6202303077176
 30
0.0
 10
-20.54276871923929
 20
257.6306232781985
 30
0.0
 10
-20.54383449329996
 20
257.6494938962995
 30
0.0
 10
-20.55758011834306
 20
257.6622049454656
 30
0.0
 10
-20.56375536634695
 20
257.6679153968713
 30
0.0
 11
-20.54218175543925
 21
257.6202303077176
 31
0.0
 11
-20.54778876114511
 21
257.6495408710839
 31
0.0
 11
-20.56375536634695
 21
257.6679153968713
 31
0.0
  0
SPLINE
  5
246
330
1F
100
AcDbEntity
  8
0
  6
Continuous
 62
     7
100
AcDbSpline
210
0.0
220
0.0
230
1.0
 70
     8
 71
     3
 72
     9
 73
     5
 74
     3
 42
0.000000001
 43
0.0000000001
 44
0.00000001
 40
0.0
 40
0.0
 40
0.0
 40
0.0
 40
0.0079159922323817
 40
0.0160938378341605
 40
0.0160938378341605
 40
0.0160938378341605
 40
0.0160938378341605
 10
-20.56375536634695
 20
257.6679153968713
 30
0.0
 10
-20.5661329396716
 20
257.6691035677465
 30
0.0
 10
-20.5709667410756
 20
257.6715191944932
 30
0.0
 10
-20.5763219202559
 20
257.6722538665677
 30
0.0
 10
-20.57904307779628
 20
257.6726271695628
 30
0.0
 11
-20.56375536634695
 21
257.6679153968713
 31
0.0
 11
-20.57101422760774
 21
257.6710732257985
 31
0.0
 11
-20.57904307779628
 21
257.6726271695628
 31
0.0
  0
SPLINE
  5
247
330
1F
100
AcDbEntity
  8
0
  6
Continuous
 62
     7
100
AcDbSpline
210
0.0
220
0.0
230
1.0
 70
     8
 71
     3
 72
     9
 73
     5
 74
     3
 42
0.000000001
 43
0.0000000001
 44
0.00000001
 40
0.0
 40
0.0
 40
0.0
 40
0.0
 40
0.0287064018234179
 40
0.0522321919985998
 40
0.0522321919985998
 40
0.0522321919985998
 40
0.0522321919985998
 10
-20.54571728934527
 20
257.6222715491699
 30
0.0
 10
-20.54625799805691
 20
257.6322196389461
 30
0.0
 10
-20.54724185243411
 20
257.6503204919351
 30
0.0
 10
-20.55986677173047
 20
257.6631193427129
 30
0.0
 10
-20.56555314196188
 20
257.6688840410704
 30
0.0
 11
-20.54571728934527
 21
257.6222715491699
 31
0.0
 11
-20.55085562747886
 21
257.6505143381164
 31
0.0
 11
-20.56555314196188
 21
257.6688840410704
 31
0.0
  0
SPLINE
  5
248
330
1F
100
AcDbEntity
  8
0
  6
Continuous
 62
     7
100
AcDbSpline
210
0.0
220
0.0
230
1.0
 70
     8
 71
     3
 72
    11
 73
     7
 74
     5
 42
0.000000001
 43
0.0000000001
 44
0.00000001
 40
0.0
 40
0.0
 40
0.0
 40
0.0
 40
0.0571313167863037
 40
0.1183045338135609
 40
0.1863171763759274
 40
0.2623443902388124
 40
0.2623443902388124
 40
0.2623443902388124
 40
0.2623443902388124
 10
-22.58646816947984
 20
260.1125419951084
 30
0.0
 10
-22.60204771277543
 20
260.1238082300023
 30
0.0
 10
-22.63430900421152
 20
260.1471377694197
 30
0.0
 10
-22.66641268000696
 20
260.2019803822353
 30
0.0
 10
-22.68671595909511
 20
260.2678507787506
 30
0.0
 10
-22.68887956933294
 20
260.3160107320085
 30
0.0
 10
-22.69002156007306
 20
260.3414305517687
 30
0.0
 11
-22.58646816947984
 21
260.1125419951084
 31
0.0
 11
-22.63043705614151
 21
260.149021094048
 31
0.0
 11
-22.66310891069886
 21
260.2007387200775
 31
0.0
 11
-22.68322811436326
 21
260.2657074628064
 31
0.0
 11
-22.69002156007306
 21
260.3414305517687
 31
0.0
  0
SPLINE
  5
249
330
1F
100
AcDbEntity
  8
0
  6
Continuous
 62
     7
100
AcDbSpline
210
0.0
220
0.0
230
1.0
 70
     8
 71
     3
 72
    11
 73
     7
 74
     5
 42
0.000000001
 43
0.0000000001
 44
0.00000001
 40
0.0
 40
0.0
 40
0.0
 40
0.0
 40
0.0760272138626986
 40
0.1440398564251225
 40
0.2052130734524174
 40
0.2623443902388028
 40
0.2623443902388028
 40
0.2623443902388028
 40
0.2623443902388028
 10
-22.33646816947984
 20
260.1373064065367
 30
0.0
 10
-22.3590533745219
 20
260.1255854896484
 30
0.0
 10
-22.40184292260708
 20
260.1033792544495
 30
0.0
 10
-22.46903999889083
 20
260.0880272116622
 30
0.0
 10
-22.53258693269669
 20
260.0884085040482
 30
0.0
 10
-22.5689215522089
 20
260.104682832282
 30
0.0
 10
-22.58646816947984
 20
260.1125419951084
 30
0.0
 11
-22.33646816947984
 21
260.1373064065367
 31
0.0
 11
-22.40544301102901
 21
260.1053281586196
 31
0.0
 11
-22.47176719451635
 21
260.0902675287324
 31
0.0
 11
-22.53289189976008
 21
260.092703371753
 31
0.0
 11
-22.58646816947984
 21
260.1125419951084
 31
0.0
  0
SPLINE
  5
24A
330
1F
100
AcDbEntity
  8
0
  6
Continuous
 62
     7
100
AcDbSpline
210
0.0
220
0.0
230
1.0
 70
     8
 71
     3
 72
    15
 73
    11
 74
     9
 42
0.000000001
 43
0.0000000001
 44
0.00000001
 40
0.0
 40
0.0
 40
0.0
 40
0.0
 40
0.0406439146784255
 40
0.0812878496476947
 40
0.1219317505249215
 40
0.1625755837392746
 40
0.2032193560600126
 40
0.243863109933793
 40
0.2845068978997537
 40
0.3251507516846732
 40
0.3251507516846732
 40
0.3251507516846732
 40
0.3251507516846732
 10
-141.6935184274551
 20
163.2937389114164
 30
0.0
 10
-141.6809256623764
 20
163.2882847859792
 30
0.0
 10
-141.6557401220027
 20
163.2773765444866
 30
0.0
 10
-141.6136690355001
 20
163.2809215969715
 30
0.0
 10
-141.5763984194705
 20
163.2991760250689
 30
0.0
 10
-141.548893561657
 20
163.3305846293194
 30
0.0
 10
-141.5354857364974
 20
163.3701225129183
 30
0.0
 10
-141.5383546322205
 20
163.4115240078592
 30
0.0
 10
-141.5563592756248
 20
163.4497125887396
 30
0.0
 10
-141.5784156389487
 20
163.4660470410355
 30
0.0
 10
-141.5894438337945
 20
163.4742142690645
 30
0.0
 11
-141.6935184274551
 21
163.2937389114164
 31
0.0
 11
-141.6550246620554
 21
163.2806944384556
 31
0.0
 11
-141.614469092857
 21
163.2833731565975
 31
0.0
 11
-141.5780260133003
 21
163.3013684007395
 31
0.0
 11
-141.5512430436358
 21
163.3319395287853
 31
0.0
 11
-141.5381985116719
 21
163.37043312007
 31
0.0
 11
-141.5408772419304
 21
163.4109885058275
 31
0.0
 11
-141.5588725674688
 21
163.4474314205448
 31
0.0
 11
-141.5894438337945
 21
163.4742142690645
 31
0.0
  0
SPLINE
  5
24B
330
1F
100
AcDbEntity
  8
0
  6
Continuous
 62
     7
100
AcDbSpline
210
0.0
220
0.0
230
1.0
 70
     8
 71
     3
 72
    15
 73
    11
 74
     9
 42
0.000000001
 43
0.0000000001
 44
0.00000001
 40
0.0
 40
0.0
 40
0.0
 40
0.0
 40
0.0406438537849195
 40
0.0812876417508931
 40
0.1219313956246395
 40
0.1625751679454136
 40
0.2032190011596891
 40
0.2438629020368772
 40
0.2845068370061747
 40
0.3251507516846007
 40
0.3251507516846007
 40
0.3251507516846007
 40
0.3251507516846007
 10
-140.1311039040986
 20
164.1347111336387
 30
0.0
 10
-140.1200757092528
 20
164.1428783616677
 30
0.0
 10
-140.0980193459289
 20
164.1592128139636
 30
0.0
 10
-140.0800147025246
 20
164.197401394844
 30
0.0
 10
-140.0771458068016
 20
164.2388028897849
 30
0.0
 10
-140.0905536319612
 20
164.2783407733838
 30
0.0
 10
-140.1180584897747
 20
164.3097493776342
 30
0.0
 10
-140.1553291058042
 20
164.3280038057319
 30
0.0
 10
-140.1974001923069
 20
164.3315488582166
 30
0.0
 10
-140.2225857326805
 20
164.320640616724
 30
0.0
 10
-140.2351784977592
 20
164.3151864912868
 30
0.0
 11
-140.1311039040986
 21
164.1347111336387
 31
0.0
 11
-140.1005326377729
 21
164.1614939821584
 31
0.0
 11
-140.0825373122345
 21
164.1979368968757
 31
0.0
 11
-140.0798585819762
 21
164.2384922826332
 31
0.0
 11
-140.0929031139401
 21
164.2769858739179
 31
0.0
 11
-140.1196860836044
 21
164.3075570019637
 31
0.0
 11
-140.156129163161
 21
164.3255522461058
 31
0.0
 11
-140.1966847323595
 21
164.3282309642477
 31
0.0
 11
-140.2351784977592
 21
164.3151864912868
 31
0.0
  0
SPLINE
  5
24C
330
1F
100
AcDbEntity
  8
0
  6
Continuous
 62
     7
100
AcDbSpline
210
0.0
220
0.0
230
1.0
 70
     8
 71
     3
 72
    15
 73
    11
 74
     9
 42
0.000000001
 43
0.0000000001
 44
0.00000001
 40
0.0
 40
0.0
 40
0.0
 40
0.0
 40
0.0406437567721377
 40
0.081287565441988
 40
0.1219314456152928
 40
0.162575375842357
 40
0.2032193060694213
 40
0.243863186242726
 40
0.284506994912608
 40
0.3251507516847512
 40
0.3251507516847512
 40
0.3251507516847512
 40
0.3251507516847512
 10
-141.3289797171185
 20
163.6242543680183
 30
0.0
 10
-141.3274137586838
 20
163.6106208941249
 30
0.0
 10
-141.3242818273657
 20
163.5833539315726
 30
0.0
 10
-141.3001939072748
 20
163.5486796064616
 30
0.0
 10
-141.2657615872515
 20
163.5255120241296
 30
0.0
 10
-141.2248125792831
 20
163.5173755532926
 30
0.0
 10
-141.1838635713147
 20
163.5255120241297
 30
0.0
 10
-141.1494312512915
 20
163.5486796064616
 30
0.0
 10
-141.1253433312006
 20
163.5833539315726
 30
0.0
 10
-141.1222113998824
 20
163.6106208941249
 30
0.0
 10
-141.1206454414477
 20
163.6242543680183
 30
0.0
 11
-141.3289797171185
 21
163.6242543680183
 31
0.0
 11
-141.3210501732787
 21
163.5843916316831
 31
0.0
 11
-141.2984698688234
 21
163.5505974116447
 31
0.0
 11
-141.2646754959263
 21
163.5280172093245
 31
0.0
 11
-141.2248125792831
 21
163.5200877013516
 31
0.0
 11
-141.18494966264
 21
163.5280172093245
 31
0.0
 11
-141.1511552897429
 21
163.5505974116447
 31
0.0
 11
-141.1285749852875
 21
163.5843916316831
 31
0.0
 11
-141.1206454414477
 21
163.6242543680183
 31
0.0
  0
SPLINE
  5
24D
330
1F
100
AcDbEntity
  8
0
  6
Continuous
 62
     7
100
AcDbSpline
210
0.0
220
0.0
230
1.0
 70
     8
 71
     3
 72
    15
 73
    11
 74
     9
 42
0.000000001
 43
0.0000000001
 44
0.00000001
 40
0.0
 40
0.0
 40
0.0
 40
0.0
 40
0.0406437567721209
 40
0.0812875654420264
 40
0.1219314456152682
 40
0.1625753758423157
 40
0.2032193060693968
 40
0.2438631862425991
 40
0.2845069949124889
 40
0.3251507516846042
 40
0.3251507516846042
 40
0.3251507516846042
 40
0.3251507516846042
 10
-142.9956539224852
 20
164.1048099235738
 30
0.0
 10
-142.9940879640504
 20
164.0911764496804
 30
0.0
 10
-142.9909560327323
 20
164.0639094871281
 30
0.0
 10
-142.9668681126414
 20
164.0292351620171
 30
0.0
 10
-142.9324357926182
 20
164.0060675796852
 30
0.0
 10
-142.8914867846497
 20
163.9979311088482
 30
0.0
 10
-142.8505377766814
 20
164.0060675796852
 30
0.0
 10
-142.8161054566581
 20
164.0292351620171
 30
0.0
 10
-142.7920175365673
 20
164.0639094871281
 30
0.0
 10
-142.7888856052491
 20
164.0911764496804
 30
0.0
 10
-142.7873196468144
 20
164.1048099235738
 30
0.0
 11
-142.9956539224852
 21
164.1048099235738
 31
0.0
 11
-142.9877243786454
 21
164.0649471872386
 31
0.0
 11
-142.9651440741899
 21
164.0311529672002
 31
0.0
 11
-142.9313497012929
 21
164.0085727648801
 31
0.0
 11
-142.8914867846498
 21
164.0006432569072
 31
0.0
 11
-142.8516238680066
 21
164.0085727648801
 31
0.0
 11
-142.8178294951096
 21
164.0311529672002
 31
0.0
 11
-142.7952491906542
 21
164.0649471872386
 31
0.0
 11
-142.7873196468144
 21
164.1048099235738
 31
0.0
  0
SPLINE
  5
24E
330
1F
100
AcDbEntity
  8
0
  6
Continuous
 62
     7
100
AcDbSpline
210
0.0
220
0.0
230
1.0
 70
     8
 71
     3
 72
    15
 73
    11
 74
     9
 42
0.000000001
 43
0.0000000001
 44
0.00000001
 40
0.0
 40
0.0
 40
0.0
 40
0.0
 40
0.0406437567721153
 40
0.0812875654420051
 40
0.1219314456153177
 40
0.1625753758424211
 40
0.2032193060694742
 40
0.2438631862426765
 40
0.2845069949125663
 40
0.3251507516846927
 40
0.3251507516846927
 40
0.3251507516846927
 40
0.3251507516846927
 10
-142.1623168198019
 20
164.1048099235738
 30
0.0
 10
-142.1607508613672
 20
164.0911764496804
 30
0.0
 10
-142.157618930049
 20
164.0639094871281
 30
0.0
 10
-142.1335310099581
 20
164.0292351620171
 30
0.0
 10
-142.0990986899349
 20
164.0060675796852
 30
0.0
 10
-142.0581496819664
 20
163.9979311088481
 30
0.0
 10
-142.017200673998
 20
164.0060675796852
 30
0.0
 10
-141.9827683539748
 20
164.0292351620171
 30
0.0
 10
-141.958680433884
 20
164.0639094871281
 30
0.0
 10
-141.9555485025658
 20
164.0911764496804
 30
0.0
 10
-141.953982544131
 20
164.1048099235738
 30
0.0
 11
-142.1623168198019
 21
164.1048099235738
 31
0.0
 11
-142.1543872759621
 21
164.0649471872386
 31
0.0
 11
-142.1318069715067
 21
164.0311529672002
 31
0.0
 11
-142.0980125986096
 21
164.0085727648801
 31
0.0
 11
-142.0581496819664
 21
164.0006432569072
 31
0.0
 11
-142.0182867653233
 21
164.0085727648801
 31
0.0
 11
-141.9844923924263
 21
164.0311529672002
 31
0.0
 11
-141.9619120879709
 21
164.0649471872386
 31
0.0
 11
-141.953982544131
 21
164.1048099235738
 31
0.0
  0
SPLINE
  5
24F
330
1F
100
AcDbEntity
  8
0
  6
Continuous
 62
     7
100
AcDbSpline
210
0.0
220
0.0
230
1.0
 70
     8
 71
     3
 72
    15
 73
    11
 74
     9
 42
0.000000001
 43
0.0000000001
 44
0.00000001
 40
0.0
 40
0.0
 40
0.0
 40
0.0
 40
0.0406437567721711
 40
0.0812875654420372
 40
0.1219314456153578
 40
0.162575375842383
 40
0.2032193060694919
 40
0.2438631862427889
 40
0.2845069949126786
 40
0.3251507516848329
 40
0.3251507516848329
 40
0.3251507516848329
 40
0.3251507516848329
 10
-142.3706510954727
 20
165.1614766365162
 30
0.0
 10
-142.3722170539075
 20
165.1751101104096
 30
0.0
 10
-142.3753489852256
 20
165.202377072962
 30
0.0
 10
-142.3994369053164
 20
165.2370513980729
 30
0.0
 10
-142.4338692253397
 20
165.2602189804049
 30
0.0
 10
-142.4748182333081
 20
165.2683554512419
 30
0.0
 10
-142.5157672412766
 20
165.2602189804049
 30
0.0
 10
-142.5501995612998
 20
165.2370513980729
 30
0.0
 10
-142.5742874813906
 20
165.202377072962
 30
0.0
 10
-142.5774194127088
 20
165.1751101104096
 30
0.0
 10
-142.5789853711436
 20
165.1614766365162
 30
0.0
 11
-142.3706510954727
 21
165.1614766365162
 31
0.0
 11
-142.3785806393125
 21
165.2013393728515
 31
0.0
 11
-142.4011609437679
 21
165.2351335928898
 31
0.0
 11
-142.434955316665
 21
165.25771379521
 31
0.0
 11
-142.4748182333081
 21
165.2656433031829
 31
0.0
 11
-142.5146811499513
 21
165.25771379521
 31
0.0
 11
-142.5484755228483
 21
165.2351335928898
 31
0.0
 11
-142.5710558273038
 21
165.2013393728514
 31
0.0
 11
-142.5789853711436
 21
165.1614766365162
 31
0.0
  0
SPLINE
  5
250
330
1F
100
AcDbEntity
  8
0
  6
Continuous
 62
     7
100
AcDbSpline
210
0.0
220
0.0
230
1.0
 70
     8
 71
     3
 72
    15
 73
    11
 74
     9
 42
0.000000001
 43
0.0000000001
 44
0.00000001
 40
0.0
 40
0.0
 40
0.0
 40
0.0
 40
0.0406437567720819
 40
0.0812875654419875
 40
0.1219314456152292
 40
0.1625753758422823
 40
0.2032193060693689
 40
0.2438631862425712
 40
0.2845069949124374
 40
0.3251507516845638
 40
0.3251507516845638
 40
0.3251507516845638
 40
0.3251507516845638
 10
-142.7873196468144
 20
164.9211988587385
 30
0.0
 10
-142.7888856052491
 20
164.9348323326319
 30
0.0
 10
-142.7920175365672
 20
164.9620992951843
 30
0.0
 10
-142.8161054566581
 20
164.9967736202951
 30
0.0
 10
-142.8505377766814
 20
165.0199412026271
 30
0.0
 10
-142.8914867846498
 20
165.0280776734642
 30
0.0
 10
-142.9324357926182
 20
165.019941202627
 30
0.0
 10
-142.9668681126414
 20
164.9967736202952
 30
0.0
 10
-142.9909560327322
 20
164.9620992951843
 30
0.0
 10
-142.9940879640504
 20
164.9348323326319
 30
0.0
 10
-142.9956539224852
 20
164.9211988587385
 30
0.0
 11
-142.7873196468144
 21
164.9211988587385
 31
0.0
 11
-142.7952491906542
 21
164.9610615950737
 31
0.0
 11
-142.8178294951096
 21
164.9948558151121
 31
0.0
 11
-142.8516238680066
 21
165.0174360174322
 31
0.0
 11
-142.8914867846498
 21
165.0253655254051
 31
0.0
 11
-142.9313497012929
 21
165.0174360174322
 31
0.0
 11
-142.9651440741899
 21
164.9948558151121
 31
0.0
 11
-142.9877243786453
 21
164.9610615950737
 31
0.0
 11
-142.9956539224852
 21
164.9211988587385
 31
0.0
  0
SPLINE
  5
251
330
1F
100
AcDbEntity
  8
0
  6
Continuous
 62
     7
100
AcDbSpline
210
0.0
220
0.0
230
1.0
 70
     8
 71
     3
 72
    15
 73
    11
 74
     9
 42
0.000000001
 43
0.0000000001
 44
0.00000001
 40
0.0
 40
0.0
 40
0.0
 40
0.0
 40
0.0406439146784351
 40
0.0812878496477364
 40
0.1219317505249119
 40
0.162575583739166
 40
0.2032193560599401
 40
0.2438631099337432
 40
0.2845068978996532
 40
0.3251507516846128
 40
0.3251507516846128
 40
0.3251507516846128
 40
0.3251507516846128
 10
-140.2351784977592
 20
164.7108222910255
 30
0.0
 10
-140.2225857326806
 20
164.7053681655883
 30
0.0
 10
-140.1974001923069
 20
164.6944599240956
 30
0.0
 10
-140.1553291058041
 20
164.6980049765804
 30
0.0
 10
-140.1180584897747
 20
164.716259404678
 30
0.0
 10
-140.0905536319613
 20
164.7476680089286
 30
0.0
 10
-140.0771458068016
 20
164.7872058925273
 30
0.0
 10
-140.0800147025246
 20
164.8286073874683
 30
0.0
 10
-140.0980193459289
 20
164.8667959683486
 30
0.0
 10
-140.1200757092528
 20
164.8831304206446
 30
0.0
 10
-140.1311039040986
 20
164.8912976486736
 30
0.0
 11
-140.2351784977592
 21
164.7108222910255
 31
0.0
 11
-140.1966847323595
 21
164.6977778180646
 31
0.0
 11
-140.156129163161
 21
164.7004565362066
 31
0.0
 11
-140.1196860836044
 21
164.7184517803486
 31
0.0
 11
-140.0929031139401
 21
164.7490229083944
 31
0.0
 11
-140.0798585819762
 21
164.7875164996791
 31
0.0
 11
-140.0825373122345
 21
164.8280718854366
 31
0.0
 11
-140.1005326377729
 21
164.8645148001539
 31
0.0
 11
-140.1311039040986
 21
164.8912976486736
 31
0.0
  0
SPLINE
  5
252
330
1F
100
AcDbEntity
  8
0
  6
Continuous
 62
     7
100
AcDbSpline
210
0.0
220
0.0
230
1.0
 70
     8
 71
     3
 72
    15
 73
    11
 74
     9
 42
0.000000001
 43
0.0000000001
 44
0.00000001
 40
0.0
 40
0.0
 40
0.0
 40
0.0
 40
0.0406439266176243
 40
0.0812878056429808
 40
0.1219316154609454
 40
0.1625753758424309
 40
0.203219136223922
 40
0.2438629460418472
 40
0.2845068250671878
 40
0.3251507516848177
 40
0.3251507516848177
 40
0.3251507516848177
 40
0.3251507516848177
 10
-140.183141200929
 20
164.4088377244895
 30
0.0
 10
-140.1695076711232
 20
164.4104036725437
 30
0.0
 10
-140.1422406301188
 20
164.4135355792675
 30
0.0
 10
-140.1075661508261
 20
164.4376233490262
 30
0.0
 10
-140.0843984274127
 20
164.4720555184314
 30
0.0
 10
-140.0762618975834
 20
164.5130043911562
 30
0.0
 10
-140.0843984274127
 20
164.5539532638809
 30
0.0
 10
-140.1075661508261
 20
164.588385433286
 30
0.0
 10
-140.1422406301188
 20
164.6124732030448
 30
0.0
 10
-140.1695076711231
 20
164.6156051097685
 30
0.0
 10
-140.183141200929
 20
164.6171710578228
 30
0.0
 11
-140.183141200929
 21
164.4088377244895
 31
0.0
 11
-140.1432782842858
 21
164.4167672324623
 31
0.0
 11
-140.1094839113887
 21
164.4393474347825
 31
0.0
 11
-140.0869036069333
 21
164.4731416548209
 31
0.0
 11
-140.0789740630935
 21
164.5130043911562
 31
0.0
 11
-140.0869036069333
 21
164.5528671274914
 31
0.0
 11
-140.1094839113887
 21
164.5866613475297
 31
0.0
 11
-140.1432782842858
 21
164.6092415498499
 31
0.0
 11
-140.183141200929
 21
164.6171710578228
 31
0.0
  0
ARC
  5
253
102
{ACAD_REACTORS
330
284
102
}
330
1F
100
AcDbEntity
  8
1
  6
Continuous
 62
     7
100
AcDbCircle
 10
-18.32369931125729
 20
12.83333333333326
 30
0.0
 40
0.1666666666667028
100
AcDbArc
 50
209.9999999999634
 51
330.0000000000195
  0
ARC
  5
254
102
{ACAD_REACTORS
330
285
102
}
330
1F
100
AcDbEntity
  8
1
  6
Continuous
 62
     7
100
AcDbCircle
 10
-20.65703264459069
 20
10.2700211480327
 30
0.0
 40
0.6666666666666003
100
AcDbArc
 50
180.0000000000104
 51
240.018360631158
  0
ARC
  5
255
330
1F
100
AcDbEntity
  8
1
  6
Continuous
 62
     7
100
AcDbCircle
 10
-26.65684751081719
 20
12.5
 30
0.0
 40
0.1666666666665959
100
AcDbArc
 50
119.9816393689121
 51
240.0183606311065
  0
ARC
  5
256
330
1F
100
AcDbEntity
  8
1
  6
Continuous
 62
     7
100
AcDbCircle
 10
-9.99055111169739
 20
12.5
 30
0.0
 40
0.1666666666665779
100
AcDbArc
 50
299.9816393688268
 51
60.01836063115454
  0
ARC
  5
257
102
{ACAD_REACTORS
330
287
102
}
330
1F
100
AcDbEntity
  8
1
  6
Continuous
 62
     7
100
AcDbCircle
 10
-15.65703264459069
 20
14.92250016016737
 30
0.0
 40
0.3333333333333598
100
AcDbArc
 50
60.0183606311539
 51
180.0
  0
ARC
  5
258
102
{ACAD_REACTORS
330
287
102
}
330
1F
100
AcDbEntity
  8
1
  6
Continuous
 62
     7
100
AcDbCircle
 10
-15.65703264459069
 20
10.07749983983257
 30
0.0
 40
0.3333333333332007
100
AcDbArc
 50
180.0
 51
299.9816393688464
  0
MTEXT
  5
25A
330
1F
100
AcDbEntity
  8
1
 62
     7
100
AcDbMText
 10
-194.0000000000001
 20
151.4999999999998
 30
0.0
 40
4.0
 41
0.0
 71
     5
 72
     1
  1
Diritti riservati      All rights reserved
  7
CONVERTER_11
 11
0.0
 21
1.0
 31
0.0
 73
     1
 44
1.32052821128451
  0
MTEXT
  5
25B
330
1F
100
AcDbEntity
  8
1
 62
     7
100
AcDbMText
 10
-187.0
 20
16.26063942075598
 30
0.0
 40
3.0
 41
0.0
 71
     4
 72
     1
  1
Date
  7
CONVERTER_11
 73
     1
 44
1.32052821128451
  0
MTEXT
  5
25C
330
1F
100
AcDbEntity
  8
1
 62
     7
100
AcDbMText
 10
-176.4
 20
16.26063942075598
 30
0.0
 40
3.0
 41
0.0
 71
     4
 72
     1
  1
15/02/11
  7
CONVERTER_11
 73
     1
 44
1.32052821128451
  0
MTEXT
  5
25D
330
1F
100
AcDbEntity
  8
1
 62
     7
100
AcDbMText
 10
-187.0
 20
8.75
 30
0.0
 40
3.0
 41
0.0
 71
     4
 72
     1
  1
Sign.
  7
CONVERTER_11
 73
     1
 44
1.32052821128451
  0
MTEXT
  5
25E
330
1F
100
AcDbEntity
  8
1
 62
     7
100
AcDbMText
 10
-176.4
 20
8.75
 30
0.0
 40
3.0
 41
0.0
 71
     4
 72
     1
  1
A. Locati
  7
CONVERTER_11
 73
     1
 44
1.32052821128451
  0
MTEXT
  5
25F
330
1F
100
AcDbEntity
  8
1
 62
     7
100
AcDbMText
 10
-40.32369931125729
 20
16.26063942075598
 30
0.0
 40
3.0
 41
0.0
 71
     5
 72
     1
  1
Scale
  7
CONVERTER_11
 73
     1
 44
1.32052821128451
  0
MTEXT
  5
260
330
1F
100
AcDbEntity
  8
1
 62
     7
100
AcDbMText
 10
-40.32369931125729
 20
10.0606394207561
 30
0.0
 40
4.5
 41
0.0
 71
     5
 72
     1
  1
1:1
  7
CONVERTER_11
 73
     1
 44
1.32052821128451
  0
MTEXT
  5
261
330
1F
100
AcDbEntity
  8
1
 62
     7
100
AcDbMText
 10
-152.7236993112573
 20
12.65304352946998
 30
0.0
 40
4.5
 41
0.0
 71
     4
 72
     1
  1
CX FM\Pdummy module
  7
CONVERTER_11
 73
     1
 44
0.90036014405762
  0
DIMENSION
  5
26D
330
1F
100
AcDbEntity
  8
1
100
AcDbDimension
  2
*D1
 10
-148.9914811306253
 20
189.013004012106
 30
0.0
 11
-141.6414811306253
 21
192.663004012106
 31
0.0
 70
    32
  1
<>
 71
     5
 42
-1.0
 53
0.00013888888889
  3
ME10_DIM_10
100
AcDbAlignedDimension
 13
-134.2914811306253
 23
174.013004012106
 33
0.0
 14
-148.9914811306253
 24
174.013004012106
 34
0.0
100
AcDbRotatedDimension
  0
DIMENSION
  5
278
330
1F
100
AcDbEntity
  8
1
100
AcDbDimension
  2
*D2
 10
-81.81937024029517
 20
189.013004012106
 30
0.0
 11
-66.81937024029497
 21
192.513004012106
 31
0.0
 70
    32
  1
<>
 71
     5
 42
-1.0
 53
0.00013888888889
  3
ME10_DIM_11
100
AcDbAlignedDimension
 13
-51.81937024029477
 23
174.0130040121063
 33
0.0
 14
-81.81937024029517
 24
174.013004012106
 34
0.0
100
AcDbRotatedDimension
  0
DIMENSION
  5
283
330
1F
100
AcDbEntity
  8
1
100
AcDbDimension
  2
*D3
 10
-36.81937024029471
 20
174.0130040121064
 30
0.0
 11
-40.31937024029471
 21
164.0130040121063
 31
0.0
 70
    32
  1
<>
 71
     5
 42
-1.0
 53
90.0
  3
ME10_DIM_12
100
AcDbAlignedDimension
 13
-49.81937024029489
 23
154.0130040121062
 33
0.0
 14
-51.81937024029477
 24
174.0130040121063
 34
0.0
 50
90.0
100
AcDbRotatedDimension
  0
HATCH
  5
284
330
1F
100
AcDbEntity
  8
1
  6
Continuous
 62
     7
100
AcDbHatch
 10
0.0
 20
0.0
 30
0.0
210
0.0
220
0.0
230
1.0
  2
SOLID
 70
     1
 71
     1
 91
        1
 92
        1
 93
       13
 72
     2
 10
-16.921998857066
 20
15.73121731203457
 40
0.2649662124753114
 50
210.0000000000311
 51
360.0
 73
     0
 72
     1
 10
-16.65703264459069
 20
15.73121731203457
 11
-16.65703264459069
 21
9.308269070601796
 72
     2
 10
-16.99036597792389
 20
9.308269070601796
 40
0.3333333333333997
 50
0.0
 51
180.0
 73
     0
 72
     1
 10
-17.32369931125729
 20
9.308269070601796
 11
-17.32369931125729
 21
14.23205080756878
 72
     1
 10
-17.32369931125729
 20
14.23205080756878
 11
-18.1793617439599
 21
12.75
 72
     2
 10
-18.32369931125729
 20
12.83333333333326
 40
0.1666666666667028
 50
29.99999999998053
 51
150.0000000000366
 73
     0
 72
     1
 10
-18.46803687855478
 20
12.75
 11
-19.32369931125729
 21
14.23205080756878
 72
     1
 10
-19.32369931125729
 20
14.23205080756878
 11
-19.32369931125729
 21
10.84758507263291
 72
     2
 10
-19.65703264459069
 20
10.84758507263291
 40
0.3333333333333997
 50
0.0
 51
180.0
 73
     0
 72
     1
 10
-19.99036597792409
 20
10.84758507263291
 11
-19.99036597792409
 21
15.73121731203457
 72
     2
 10
-19.72539976544869
 20
15.73121731203457
 40
0.2649662124752854
 50
180.0
 51
329.9999999999808
 73
     0
 72
     1
 10
-19.49593229430059
 20
15.86370041827229
 11
-18.32369931125729
 21
13.83333333333326
 72
     1
 10
-18.32369931125729
 20
13.83333333333326
 11
-17.15146632821399
 21
15.86370041827229
 97
       13
330
5D
330
20B
330
5C
330
20C
330
57
330
56
330
253
330
55
330
54
330
20D
330
5E
330
20E
330
5F
 75
     0
 76
     1
 98
        1
 10
0.0
 20
0.0
  0
HATCH
  5
285
330
1F
100
AcDbEntity
  8
1
  6
Continuous
 62
     7
100
AcDbHatch
 10
0.0
 20
0.0
 30
0.0
210
0.0
220
0.0
230
1.0
  2
SOLID
 70
     1
 71
     1
 91
        1
 92
        1
 93
        7
 72
     2
 10
-20.99036597792409
 20
14.92250016016737
 40
0.3333333333333997
 50
0.0
 51
180.0
 73
     1
 72
     1
 10
-21.32369931125729
 20
14.92250016016737
 11
-21.32369931125729
 21
10.27002114803258
 72
     2
 10
-20.65703264459069
 20
10.2700211480327
 40
0.6666666666666003
 50
180.0000000000104
 51
240.018360631158
 73
     1
 72
     1
 10
-20.99018094691701
 20
9.692564090666906
 11
-18.8236067957539
 21
8.442617464995806
 72
     2
 10
-18.65703264459069
 20
8.731345993678701
 40
0.3333333333333673
 50
240.0183606311504
 51
420.0183606311537
 73
     1
 72
     1
 10
-18.4904584934275
 20
9.020074522361597
 11
-20.65703264459069
 21
10.2700211480327
 72
     1
 10
-20.65703264459069
 20
10.2700211480327
 11
-20.65703264459069
 21
14.92250016016737
 97
        7
330
20F
330
60
330
254
330
63
330
210
330
62
330
61
 75
     0
 76
     1
 98
        1
 10
0.0
 20
0.0
  0
HATCH
  5
286
330
1F
100
AcDbEntity
  8
1
  6
Continuous
 62
     7
100
AcDbHatch
 10
0.0
 20
0.0
 30
0.0
210
0.0
220
0.0
230
1.0
  2
SOLID
 70
     1
 71
     1
 91
        1
 92
        1
 93
        4
 72
     2
 10
-22.32369931125729
 20
14.15326939093666
 40
0.3333333333332007
 50
0.0
 51
180.0
 73
     1
 72
     1
 10
-22.65703264459069
 20
14.15326939093666
 11
-22.65703264459069
 21
10.84673060906317
 72
     2
 10
-22.32369931125729
 20
10.84673060906317
 40
0.3333333333333997
 50
180.0
 51
360.0
 73
     1
 72
     1
 10
-21.99036597792409
 20
10.84673060906317
 11
-21.99036597792409
 21
14.15326939093666
 97
        4
330
211
330
65
330
212
330
64
 75
     0
 76
     1
 98
        1
 10
0.0
 20
0.0
  0
HATCH
  5
287
330
1F
100
AcDbEntity
  8
1
  6
Continuous
 62
     7
100
AcDbHatch
 10
0.0
 20
0.0
 30
0.0
210
0.0
220
0.0
230
1.0
  2
SOLID
 70
     1
 71
     1
 91
        1
 92
        1
 93
       14
 72
     2
 10
-15.65703264459069
 20
14.92250016016737
 40
0.3333333333333598
 50
60.0183606311539
 51
180.0
 73
     1
 72
     1
 10
-15.99036597792389
 20
14.92250016016737
 11
-15.99036597792389
 21
10.07749983983257
 72
     2
 10
-15.65703264459069
 20
10.07749983983257
 40
0.3333333333332007
 50
180.0
 51
299.9816393688464
 73
     1
 72
     1
 10
-15.4904584934275
 20
9.788771311149674
 11
-14.15712516009418
 21
10.55800208038028
 72
     2
 10
-14.32369931125729
 20
10.84673060906317
 40
0.3333333333333121
 50
299.9816393688349
 51
479.9816393688399
 73
     1
 72
     1
 10
-14.4902734624205
 20
11.13545913774618
 11
-15.32369931125729
 21
10.654636532648
 72
     1
 10
-15.32369931125729
 20
10.654636532648
 11
-15.32369931125729
 21
12.16666666666657
 72
     1
 10
-15.32369931125729
 20
12.16666666666657
 11
-14.32369931125729
 21
12.16666666666657
 72
     2
 10
-14.32369931125729
 20
12.5
 40
0.3333333333334298
 50
270.0
 51
450.0
 73
     1
 72
     1
 10
-14.32369931125729
 20
12.83333333333326
 11
-15.32369931125729
 21
12.83333333333326
 72
     1
 10
-15.32369931125729
 20
12.83333333333326
 11
-15.32369931125729
 21
14.345363467352
 72
     1
 10
-15.32369931125729
 20
14.345363467352
 11
-14.4902734624205
 21
13.86454086225376
 72
     2
 10
-14.32369931125729
 20
14.15326939093666
 40
0.333333333333372
 50
240.0183606311508
 51
420.0183606311504
 73
     1
 72
     1
 10
-14.15712516009418
 20
14.44199791961938
 11
-15.4904584934275
 21
15.21122868885027
 97
       14
330
213
330
67
330
68
330
69
330
214
330
6A
330
6B
330
6C
330
215
330
6D
330
258
330
53
330
257
330
66
 75
     0
 76
     1
 98
        1
 10
0.0
 20
0.0
  0
ENDSEC
  0
SECTION
  2
OBJECTS
  0
DICTIONARY
  5
C
330
0
100
AcDbDictionary
281
     1
  3
ACAD_GROUP
350
D
  3
ACAD_LAYOUT
350
1A
  3
ACAD_MATERIAL
350
3B
  3
ACAD_MLEADERSTYLE
350
28A
  3
ACAD_MLINESTYLE
350
17
  3
ACAD_PLOTSETTINGS
350
19
  3
ACAD_PLOTSTYLENAME
350
E
  3
ACAD_VISUALSTYLE
350
2A
  3
AcDbVariableDictionary
350
288
  0
DICTIONARY
  5
D
102
{ACAD_REACTORS
330
C
102
}
330
C
100
AcDbDictionary
281
     1
  0
DICTIONARY
  5
1A
102
{ACAD_REACTORS
330
C
102
}
330
C
100
AcDbDictionary
281
     1
  3
Layout1
350
1E
  3
Layout2
350
26
  3
Model
350
22
  0
DICTIONARY
  5
3B
102
{ACAD_REACTORS
330
C
102
}
330
C
100
AcDbDictionary
281
     1
  3
ByBlock
350
3D
  3
ByLayer
350
3C
  3
Global
350
3E
  0
DICTIONARY
  5
28A
102
{ACAD_REACTORS
330
C
102
}
330
C
100
AcDbDictionary
281
     1
  0
DICTIONARY
  5
17
102
{ACAD_REACTORS
330
C
102
}
330
C
100
AcDbDictionary
281
     1
  3
Standard
350
18
  0
DICTIONARY
  5
19
102
{ACAD_REACTORS
330
C
102
}
330
C
100
AcDbDictionary
281
     1
  0
ACDBDICTIONARYWDFLT
  5
E
102
{ACAD_REACTORS
330
C
102
}
330
C
100
AcDbDictionary
281
     1
  3
Normal
350
F
100
AcDbDictionaryWithDefault
340
F
  0
DICTIONARY
  5
2A
102
{ACAD_REACTORS
330
C
102
}
330
C
100
AcDbDictionary
281
     1
  3
2dWireframe
350
2F
  3
3D Hidden
350
31
  3
3dWireframe
350
30
  3
Basic
350
32
  3
Brighten
350
36
  3
ColorChange
350
3A
  3
Conceptual
350
34
  3
Dim
350
35
  3
Facepattern
350
39
  3
Flat
350
2B
  3
FlatWithEdges
350
2C
  3
Gouraud
350
2D
  3
GouraudWithEdges
350
2E
  3
Linepattern
350
38
  3
Realistic
350
33
  3
Thicken
350
37
  0
DICTIONARY
  5
288
102
{ACAD_REACTORS
330
C
102
}
330
C
100
AcDbDictionary
281
     1
  3
DIMASSOC
350
28B
  3
HIDETEXT
350
28C
  0
LAYOUT
  5
1E
102
{ACAD_REACTORS
330
1A
102
}
330
1A
100
AcDbPlotSettings
  1

  2
none_device
  4

  6

 40
0.0
 41
0.0
 42
0.0
 43
0.0
 44
0.0
 45
0.0
 46
0.0
 47
0.0
 48
0.0
 49
0.0
140
0.0
141
0.0
142
1.0
143
1.0
 70
   688
 72
     0
 73
     0
 74
     5
  7

 75
    16
147
1.0
148
0.0
149
0.0
100
AcDbLayout
  1
Layout1
 70
     1
 71
     1
 10
0.0
 20
0.0
 11
12.0
 21
9.0
 12
0.0
 22
0.0
 32
0.0
 14
1.00000000000000E+20
 24
1.00000000000000E+20
 34
1.00000000000000E+20
 15
-1.00000000000000E+20
 25
-1.00000000000000E+20
 35
-1.00000000000000E+20
146
0.0
 13
0.0
 23
0.0
 33
0.0
 16
1.0
 26
0.0
 36
0.0
 17
0.0
 27
1.0
 37
0.0
 76
     0
330
1B
  0
LAYOUT
  5
26
102
{ACAD_REACTORS
330
1A
102
}
330
1A
100
AcDbPlotSettings
  1

  2
none_device
  4

  6

 40
0.0
 41
0.0
 42
0.0
 43
0.0
 44
0.0
 45
0.0
 46
0.0
 47
0.0
 48
0.0
 49
0.0
140
0.0
141
0.0
142
1.0
143
1.0
 70
   688
 72
     0
 73
     0
 74
     5
  7

 75
    16
147
1.0
148
0.0
149
0.0
100
AcDbLayout
  1
Layout2
 70
     1
 71
     2
 10
0.0
 20
0.0
 11
0.0
 21
0.0
 12
0.0
 22
0.0
 32
0.0
 14
0.0
 24
0.0
 34
0.0
 15
0.0
 25
0.0
 35
0.0
146
0.0
 13
0.0
 23
0.0
 33
0.0
 16
1.0
 26
0.0
 36
0.0
 17
0.0
 27
1.0
 37
0.0
 76
     0
330
23
  0
LAYOUT
  5
22
102
{ACAD_REACTORS
330
1A
102
}
330
1A
100
AcDbPlotSettings
  1

  2
none_device
  4

  6

 40
0.0
 41
0.0
 42
0.0
 43
0.0
 44
0.0
 45
0.0
 46
0.0
 47
0.0
 48
0.0
 49
0.0
140
0.0
141
0.0
142
1.0
143
1.0
 70
  1712
 72
     0
 73
     0
 74
     0
  7

 75
     0
147
1.0
148
0.0
149
0.0
100
AcDbLayout
  1
Model
 70
     1
 71
     0
 10
0.0
 20
0.0
 11
12.0
 21
9.0
 12
0.0
 22
0.0
 32
0.0
 14
-210.0000000000001
 24
0.0
 34
0.0
 15
0.0
 25
297.0000000000001
 35
0.0
146
0.0
 13
0.0
 23
0.0
 33
0.0
 16
1.0
 26
0.0
 36
0.0
 17
0.0
 27
1.0
 37
0.0
 76
     0
330
1F
331
29
  0
MATERIAL
  5
3D
102
{ACAD_REACTORS
330
3B
102
}
102
{ACAD_XDICTIONARY
360
2AF
102
}
330
3B
100
AcDbMaterial
  1
ByBlock
  0
MATERIAL
  5
3C
102
{ACAD_REACTORS
330
3B
102
}
102
{ACAD_XDICTIONARY
360
2AD
102
}
330
3B
100
AcDbMaterial
  1
ByLayer
  0
MATERIAL
  5
3E
102
{ACAD_REACTORS
330
3B
102
}
102
{ACAD_XDICTIONARY
360
2B1
102
}
330
3B
100
AcDbMaterial
  1
Global
  0
MLINESTYLE
  5
18
102
{ACAD_REACTORS
330
17
102
}
330
17
100
AcDbMlineStyle
  2
Standard
 70
     0
  3

 62
   256
 51
90.0
 52
90.0
 71
     2
 49
0.5
 62
   256
  6
BYLAYER
 49
-0.5
 62
   256
  6
BYLAYER
  0
ACDBPLACEHOLDER
  5
F
102
{ACAD_REACTORS
330
E
102
}
330
E
  0
VISUALSTYLE
  5
2F
102
{ACAD_REACTORS
330
2A
102
}
102
{ACAD_XDICTIONARY
360
295
102
}
330
2A
100
AcDbVisualStyle
  2
2dWireframe
 70
     4
 71
     0
 72
     2
 73
     0
 90
        0
 40
-0.6
 41
-30.0
 62
     5
 63
     7
 74
     1
 91
        4
 64
     7
 65
   257
 75
     1
175
     1
 42
1.0
 92
        0
 66
   257
 43
1.0
 76
     1
 77
     6
 78
     2
 67
     7
 79
     5
170
     0
171
     0
290
     0
174
     0
 93
        1
 44
0.0
173
     0
291
     0
 45
0.0
1001
ACAD
1000
AcDbSavedByObjectVersion
1070
     0
  0
VISUALSTYLE
  5
31
102
{ACAD_REACTORS
330
2A
102
}
102
{ACAD_XDICTIONARY
360
299
102
}
330
2A
100
AcDbVisualStyle
  2
3D Hidden
 70
     6
 71
     1
 72
     2
 73
     2
 90
        0
 40
-0.6
 41
-30.0
 62
     5
 63
     7
 74
     2
 91
        2
 64
     7
 65
   257
 75
     2
175
     1
 42
40.0
 92
        0
 66
   257
 43
1.0
 76
     1
 77
     6
 78
     2
 67
     7
 79
     3
170
     0
171
     0
290
     0
174
     0
 93
        1
 44
0.0
173
     0
291
     0
 45
0.0
1001
ACAD
1000
AcDbSavedByObjectVersion
1070
     0
  0
VISUALSTYLE
  5
30
102
{ACAD_REACTORS
330
2A
102
}
102
{ACAD_XDICTIONARY
360
297
102
}
330
2A
100
AcDbVisualStyle
  2
3dWireframe
 70
     5
 71
     0
 72
     2
 73
     0
 90
        0
 40
-0.6
 41
-30.0
 62
     5
 63
     7
 74
     1
 91
        4
 64
     7
 65
   257
 75
     1
175
     1
 42
1.0
 92
        0
 66
   257
 43
1.0
 76
     1
 77
     6
 78
     2
 67
     7
 79
     5
170
     0
171
     0
290
     0
174
     0
 93
        1
 44
0.0
173
     0
291
     0
 45
0.0
1001
ACAD
1000
AcDbSavedByObjectVersion
1070
     0
  0
VISUALSTYLE
  5
32
102
{ACAD_REACTORS
330
2A
102
}
102
{ACAD_XDICTIONARY
360
29B
102
}
330
2A
100
AcDbVisualStyle
  2
Basic
 70
     7
 71
     1
 72
     0
 73
     1
 90
        0
 40
-0.6
 41
-30.0
 62
     5
 63
     7
 74
     0
 91
        4
 64
     7
 65
   257
 75
     1
175
     1
 42
1.0
 92
        8
 66
     7
 43
1.0
 76
     1
 77
     6
 78
     2
 67
     7
 79
     5
170
     0
171
     0
290
     0
174
     0
 93
        1
 44
0.0
173
     0
291
     1
 45
0.0
1001
ACAD
1000
AcDbSavedByObjectVersion
1070
     0
  0
VISUALSTYLE
  5
36
102
{ACAD_REACTORS
330
2A
102
}
102
{ACAD_XDICTIONARY
360
2A3
102
}
330
2A
100
AcDbVisualStyle
  2
Brighten
 70
    12
 71
     2
 72
     2
 73
     0
 90
        0
 40
-0.6
 41
-30.0
 62
     5
 63
     7
 74
     1
 91
        4
 64
     7
 65
   257
 75
     1
175
     1
 42
1.0
 92
        8
 66
     7
 43
1.0
 76
     1
 77
     6
 78
     2
 67
     7
 79
     5
170
     0
171
     0
290
     0
174
     0
 93
        1
 44
50.0
173
     0
291
     1
 45
0.0
1001
ACAD
1000
AcDbSavedByObjectVersion
1070
     0
  0
VISUALSTYLE
  5
3A
102
{ACAD_REACTORS
330
2A
102
}
102
{ACAD_XDICTIONARY
360
2AB
102
}
330
2A
100
AcDbVisualStyle
  2
ColorChange
 70
    16
 71
     2
 72
     2
 73
     3
 90
        0
 40
-0.6
 41
-30.0
 62
     5
 63
     8
 74
     1
 91
        4
 64
     7
 65
   257
 75
     1
175
     1
 42
1.0
 92
        8
 66
     8
 43
1.0
 76
     1
 77
     6
 78
     2
 67
     7
 79
     5
170
     0
171
     0
290
     0
174
     0
 93
        1
 44
0.0
173
     0
291
     1
 45
0.0
1001
ACAD
1000
AcDbSavedByObjectVersion
1070
     0
  0
VISUALSTYLE
  5
34
102
{ACAD_REACTORS
330
2A
102
}
102
{ACAD_XDICTIONARY
360
29F
102
}
330
2A
100
AcDbVisualStyle
  2
Conceptual
 70
     9
 71
     3
 72
     2
 73
     0
 90
        0
 40
-0.6
 41
-30.0
 62
     5
 63
     7
 74
     2
 91
        2
 64
     7
 65
   257
 75
     1
175
     1
 42
40.0
 92
        8
 66
     7
 43
1.0
 76
     1
 77
     6
 78
     2
 67
     7
 79
     3
170
     0
171
     0
290
     0
174
     0
 93
        1
 44
0.0
173
     0
291
     0
 45
0.0
1001
ACAD
1000
AcDbSavedByObjectVersion
1070
     0
  0
VISUALSTYLE
  5
35
102
{ACAD_REACTORS
330
2A
102
}
102
{ACAD_XDICTIONARY
360
2A1
102
}
330
2A
100
AcDbVisualStyle
  2
Dim
 70
    11
 71
     2
 72
     2
 73
     0
 90
        0
 40
-0.6
 41
-30.0
 62
     5
 63
     7
 74
     1
 91
        4
 64
     7
 65
   257
 75
     1
175
     1
 42
1.0
 92
        8
 66
     7
 43
1.0
 76
     1
 77
     6
 78
     2
 67
     7
 79
     5
170
     0
171
     0
290
     0
174
     0
 93
        1
 44
-50.0
173
     0
291
     1
 45
0.0
1001
ACAD
1000
AcDbSavedByObjectVersion
1070
     0
  0
VISUALSTYLE
  5
39
102
{ACAD_REACTORS
330
2A
102
}
102
{ACAD_XDICTIONARY
360
2A9
102
}
330
2A
100
AcDbVisualStyle
  2
Facepattern
 70
    15
 71
     2
 72
     2
 73
     0
 90
        0
 40
-0.6
 41
-30.0
 62
     5
 63
     7
 74
     1
 91
        4
 64
     7
 65
   257
 75
     1
175
     1
 42
1.0
 92
        8
 66
     7
 43
1.0
 76
     1
 77
     6
 78
     2
 67
     7
 79
     5
170
     0
171
     0
290
     0
174
     0
 93
        1
 44
0.0
173
     0
291
     1
 45
0.0
1001
ACAD
1000
AcDbSavedByObjectVersion
1070
     0
  0
VISUALSTYLE
  5
2B
102
{ACAD_REACTORS
330
2A
102
}
102
{ACAD_XDICTIONARY
360
28D
102
}
330
2A
100
AcDbVisualStyle
  2
Flat
 70
     0
 71
     2
 72
     1
 73
     1
 90
        2
 40
-0.6
 41
30.0
 62
     5
 63
     7
 74
     0
 91
        4
 64
     7
 65
   257
 75
     1
175
     1
 42
1.0
 92
        8
 66
     7
 43
1.0
 76
     1
 77
     6
 78
     2
 67
     7
 79
     5
170
     0
171
     0
290
     0
174
     0
 93
       13
 44
0.0
173
     0
291
     1
 45
0.0
1001
ACAD
1000
AcDbSavedByObjectVersion
1070
     0
  0
VISUALSTYLE
  5
2C
102
{ACAD_REACTORS
330
2A
102
}
102
{ACAD_XDICTIONARY
360
28F
102
}
330
2A
100
AcDbVisualStyle
  2
FlatWithEdges
 70
     1
 71
     2
 72
     1
 73
     1
 90
        2
 40
-0.6
 41
30.0
 62
     5
 63
     7
 74
     1
 91
        4
 64
     7
 65
   257
 75
     1
175
     1
 42
1.0
 92
        0
 66
   257
 43
1.0
 76
     1
 77
     6
 78
     2
 67
     7
 79
     5
170
     0
171
     0
290
     0
174
     0
 93
       13
 44
0.0
173
     0
291
     1
 45
0.0
1001
ACAD
1000
AcDbSavedByObjectVersion
1070
     0
  0
VISUALSTYLE
  5
2D
102
{ACAD_REACTORS
330
2A
102
}
102
{ACAD_XDICTIONARY
360
291
102
}
330
2A
100
AcDbVisualStyle
  2
Gouraud
 70
     2
 71
     2
 72
     2
 73
     1
 90
        2
 40
-0.6
 41
30.0
 62
     5
 63
     7
 74
     0
 91
        4
 64
     7
 65
   257
 75
     1
175
     1
 42
1.0
 92
        0
 66
     7
 43
1.0
 76
     1
 77
     6
 78
     2
 67
     7
 79
     5
170
     0
171
     0
290
     0
174
     0
 93
       13
 44
0.0
173
     0
291
     1
 45
0.0
1001
ACAD
1000
AcDbSavedByObjectVersion
1070
     0
  0
VISUALSTYLE
  5
2E
102
{ACAD_REACTORS
330
2A
102
}
102
{ACAD_XDICTIONARY
360
293
102
}
330
2A
100
AcDbVisualStyle
  2
GouraudWithEdges
 70
     3
 71
     2
 72
     2
 73
     1
 90
        2
 40
-0.6
 41
30.0
 62
     5
 63
     7
 74
     1
 91
        4
 64
     7
 65
   257
 75
     1
175
     1
 42
1.0
 92
        0
 66
   257
 43
1.0
 76
     1
 77
     6
 78
     2
 67
     7
 79
     5
170
     0
171
     0
290
     0
174
     0
 93
       13
 44
0.0
173
     0
291
     1
 45
0.0
1001
ACAD
1000
AcDbSavedByObjectVersion
1070
     0
  0
VISUALSTYLE
  5
38
102
{ACAD_REACTORS
330
2A
102
}
102
{ACAD_XDICTIONARY
360
2A7
102
}
330
2A
100
AcDbVisualStyle
  2
Linepattern
 70
    14
 71
     2
 72
     2
 73
     0
 90
        0
 40
-0.6
 41
-30.0
 62
     5
 63
     7
 74
     1
 91
        4
 64
     7
 65
   257
 75
     7
175
     7
 42
1.0
 92
        8
 66
     7
 43
1.0
 76
     1
 77
     6
 78
     2
 67
     7
 79
     5
170
     0
171
     0
290
     0
174
     0
 93
        1
 44
0.0
173
     0
291
     1
 45
0.0
1001
ACAD
1000
AcDbSavedByObjectVersion
1070
     0
  0
VISUALSTYLE
  5
33
102
{ACAD_REACTORS
330
2A
102
}
102
{ACAD_XDICTIONARY
360
29D
102
}
330
2A
100
AcDbVisualStyle
  2
Realistic
 70
     8
 71
     2
 72
     2
 73
     0
 90
        0
 40
-0.6
 41
-30.0
 62
     5
 63
     7
 74
     1
 91
        0
 64
     7
 65
   257
 75
     1
175
     1
 42
1.0
 92
        8
 66
     8
 43
1.0
 76
     1
 77
     6
 78
     2
 67
     7
 79
     5
170
     0
171
     0
290
     0
174
     0
 93
       13
 44
0.0
173
     0
291
     0
 45
0.0
1001
ACAD
1000
AcDbSavedByObjectVersion
1070
     0
  0
VISUALSTYLE
  5
37
102
{ACAD_REACTORS
330
2A
102
}
102
{ACAD_XDICTIONARY
360
2A5
102
}
330
2A
100
AcDbVisualStyle
  2
Thicken
 70
    13
 71
     2
 72
     2
 73
     0
 90
        0
 40
-0.6
 41
-30.0
 62
     5
 63
     7
 74
     1
 91
        4
 64
     7
 65
   257
 75
     1
175
     1
 42
1.0
 92
       12
 66
     7
 43
1.0
 76
     1
 77
     6
 78
     2
 67
     7
 79
     5
170
     0
171
     0
290
     0
174
     0
 93
        1
 44
0.0
173
     0
291
     1
 45
0.0
1001
ACAD
1000
AcDbSavedByObjectVersion
1070
     0
  0
DICTIONARYVAR
  5
28B
102
{ACAD_REACTORS
330
288
102
}
330
288
100
DictionaryVariables
280
     0
  1
2
  0
DICTIONARYVAR
  5
28C
102
{ACAD_REACTORS
330
288
102
}
330
288
100
DictionaryVariables
280
     0
  1
1
  0
DICTIONARY
  5
2AF
330
3D
100
AcDbDictionary
280
     1
281
     1
  3
ACAD_XREC_ROUNDTRIP
360
2B0
  0
DICTIONARY
  5
2AD
330
3C
100
AcDbDictionary
280
     1
281
     1
  3
ACAD_XREC_ROUNDTRIP
360
2AE
  0
DICTIONARY
  5
2B1
330
3E
100
AcDbDictionary
280
     1
281
     1
  3
ACAD_XREC_ROUNDTRIP
360
2B2
  0
DICTIONARY
  5
295
330
2F
100
AcDbDictionary
280
     1
281
     1
  3
ACAD_XREC_ROUNDTRIP
360
296
  0
DICTIONARY
  5
299
330
31
100
AcDbDictionary
280
     1
281
     1
  3
ACAD_XREC_ROUNDTRIP
360
29A
  0
DICTIONARY
  5
297
330
30
100
AcDbDictionary
280
     1
281
     1
  3
ACAD_XREC_ROUNDTRIP
360
298
  0
DICTIONARY
  5
29B
330
32
100
AcDbDictionary
280
     1
281
     1
  3
ACAD_XREC_ROUNDTRIP
360
29C
  0
DICTIONARY
  5
2A3
330
36
100
AcDbDictionary
280
     1
281
     1
  3
ACAD_XREC_ROUNDTRIP
360
2A4
  0
DICTIONARY
  5
2AB
330
3A
100
AcDbDictionary
280
     1
281
     1
  3
ACAD_XREC_ROUNDTRIP
360
2AC
  0
DICTIONARY
  5
29F
330
34
100
AcDbDictionary
280
     1
281
     1
  3
ACAD_XREC_ROUNDTRIP
360
2A0
  0
DICTIONARY
  5
2A1
330
35
100
AcDbDictionary
280
     1
281
     1
  3
ACAD_XREC_ROUNDTRIP
360
2A2
  0
DICTIONARY
  5
2A9
330
39
100
AcDbDictionary
280
     1
281
     1
  3
ACAD_XREC_ROUNDTRIP
360
2AA
  0
DICTIONARY
  5
28D
330
2B
100
AcDbDictionary
280
     1
281
     1
  3
ACAD_XREC_ROUNDTRIP
360
28E
  0
DICTIONARY
  5
28F
330
2C
100
AcDbDictionary
280
     1
281
     1
  3
ACAD_XREC_ROUNDTRIP
360
290
  0
DICTIONARY
  5
291
330
2D
100
AcDbDictionary
280
     1
281
     1
  3
ACAD_XREC_ROUNDTRIP
360
292
  0
DICTIONARY
  5
293
330
2E
100
AcDbDictionary
280
     1
281
     1
  3
ACAD_XREC_ROUNDTRIP
360
294
  0
DICTIONARY
  5
2A7
330
38
100
AcDbDictionary
280
     1
281
     1
  3
ACAD_XREC_ROUNDTRIP
360
2A8
  0
DICTIONARY
  5
29D
330
33
100
AcDbDictionary
280
     1
281
     1
  3
ACAD_XREC_ROUNDTRIP
360
29E
  0
DICTIONARY
  5
2A5
330
37
100
AcDbDictionary
280
     1
281
     1
  3
ACAD_XREC_ROUNDTRIP
360
2A6
  0
XRECORD
  5
2B0
102
{ACAD_REACTORS
330
2AF
102
}
330
2AF
100
AcDbXrecord
280
     1
102
MATERIAL
148
0.0
149
0.0
149
0.0
 93
        0
 94
      127
282
     0
 72
     1
 77
     1
171
     1
175
     1
179
     1
273
     0
  0
XRECORD
  5
2AE
102
{ACAD_REACTORS
330
2AD
102
}
330
2AD
100
AcDbXrecord
280
     1
102
MATERIAL
148
0.0
149
0.0
149
0.0
 93
        0
 94
      127
282
     0
 72
     1
 77
     1
171
     1
175
     1
179
     1
273
     0
  0
XRECORD
  5
2B2
102
{ACAD_REACTORS
330
2B1
102
}
330
2B1
100
AcDbXrecord
280
     1
102
MATERIAL
148
0.0
149
0.0
149
0.0
 93
        0
 94
      127
282
     0
 72
     1
 77
     1
171
     1
175
     1
179
     1
273
     0
  0
XRECORD
  5
296
102
{ACAD_REACTORS
330
295
102
}
330
295
100
AcDbXrecord
280
     1
102
RTVSPropertyOp0
 70
     1
102
RTVSPropertyOp1
 70
     1
102
RTVSPropertyOp2
 70
     1
102
RTVSPropertyOp3
 70
     1
102
RTVSPropertyOp4
 70
     1
102
RTVSPropertyOp5
 70
     1
102
RTVSPropertyOp6
 70
     1
102
RTVSPropertyOp7
 70
     1
102
RTVSPropertyOp8
 70
     1
102
RTVSPropertyOp9
 70
     1
102
RTVSPropertyOp10
 70
     1
102
RTVSPropertyOp11
 70
     1
102
RTVSPropertyOp12
 70
     1
102
RTVSPropertyOp13
 70
     1
102
RTVSPropertyOp14
 70
     1
102
RTVSPropertyOp15
 70
     1
102
RTVSPropertyOp16
 70
     1
102
RTVSPropertyOp17
 70
     1
102
RTVSPropertyOp18
 70
     1
102
RTVSPropertyOp19
 70
     1
102
RTVSPropertyOp20
 70
     1
102
RTVSPropertyOp21
 70
     1
102
RTVSPropertyOp22
 70
     1
102
RTVSPropertyOp23
 70
     1
102
RTVSPropertyOp24
 70
     1
102
RTVSPropertyOp25
 70
     1
102
RTVSPropertyOp26
 70
     1
102
RTVSPropertyOp27
 70
     1
102
RTVSPropertyOp28
 70
     1
102
RTVSPropertyOp29
 70
     1
102
RTVSPropertyOp30
 70
     1
102
RTVSPropertyOp31
 70
     1
102
RTVSPropertyOp32
 70
     1
  0
XRECORD
  5
29A
102
{ACAD_REACTORS
330
299
102
}
330
299
100
AcDbXrecord
280
     1
102
RTVSPropertyOp0
 70
     1
102
RTVSPropertyOp1
 70
     1
102
RTVSPropertyOp2
 70
     1
102
RTVSPropertyOp3
 70
     1
102
RTVSPropertyOp4
 70
     1
102
RTVSPropertyOp5
 70
     1
102
RTVSPropertyOp6
 70
     1
102
RTVSPropertyOp7
 70
     1
102
RTVSPropertyOp8
 70
     1
102
RTVSPropertyOp9
 70
     1
102
RTVSPropertyOp10
 70
     1
102
RTVSPropertyOp11
 70
     1
102
RTVSPropertyOp12
 70
     1
102
RTVSPropertyOp13
 70
     1
102
RTVSPropertyOp14
 70
     1
102
RTVSPropertyOp15
 70
     1
102
RTVSPropertyOp16
 70
     1
102
RTVSPropertyOp17
 70
     1
102
RTVSPropertyOp18
 70
     1
102
RTVSPropertyOp19
 70
     1
102
RTVSPropertyOp20
 70
     1
102
RTVSPropertyOp21
 70
     1
102
RTVSPropertyOp22
 70
     1
102
RTVSPropertyOp23
 70
     1
102
RTVSPropertyOp24
 70
     1
102
RTVSPropertyOp25
 70
     1
102
RTVSPropertyOp26
 70
     1
102
RTVSPropertyOp27
 70
     1
102
RTVSPropertyOp28
 70
     1
102
RTVSPropertyOp29
 70
     1
102
RTVSPropertyOp30
 70
     1
102
RTVSPropertyOp31
 70
     1
102
RTVSPropertyOp32
 70
     1
  0
XRECORD
  5
298
102
{ACAD_REACTORS
330
297
102
}
330
297
100
AcDbXrecord
280
     1
102
RTVSPropertyOp0
 70
     1
102
RTVSPropertyOp1
 70
     1
102
RTVSPropertyOp2
 70
     1
102
RTVSPropertyOp3
 70
     1
102
RTVSPropertyOp4
 70
     1
102
RTVSPropertyOp5
 70
     1
102
RTVSPropertyOp6
 70
     1
102
RTVSPropertyOp7
 70
     1
102
RTVSPropertyOp8
 70
     1
102
RTVSPropertyOp9
 70
     1
102
RTVSPropertyOp10
 70
     1
102
RTVSPropertyOp11
 70
     1
102
RTVSPropertyOp12
 70
     1
102
RTVSPropertyOp13
 70
     1
102
RTVSPropertyOp14
 70
     1
102
RTVSPropertyOp15
 70
     1
102
RTVSPropertyOp16
 70
     1
102
RTVSPropertyOp17
 70
     1
102
RTVSPropertyOp18
 70
     1
102
RTVSPropertyOp19
 70
     1
102
RTVSPropertyOp20
 70
     1
102
RTVSPropertyOp21
 70
     1
102
RTVSPropertyOp22
 70
     1
102
RTVSPropertyOp23
 70
     1
102
RTVSPropertyOp24
 70
     1
102
RTVSPropertyOp25
 70
     1
102
RTVSPropertyOp26
 70
     1
102
RTVSPropertyOp27
 70
     1
102
RTVSPropertyOp28
 70
     1
102
RTVSPropertyOp29
 70
     1
102
RTVSPropertyOp30
 70
     1
102
RTVSPropertyOp31
 70
     1
102
RTVSPropertyOp32
 70
     1
  0
XRECORD
  5
29C
102
{ACAD_REACTORS
330
29B
102
}
330
29B
100
AcDbXrecord
280
     1
102
RTVSPropertyOp0
 70
     1
102
RTVSPropertyOp1
 70
     1
102
RTVSPropertyOp2
 70
     1
102
RTVSPropertyOp3
 70
     1
102
RTVSPropertyOp4
 70
     1
102
RTVSPropertyOp5
 70
     1
102
RTVSPropertyOp6
 70
     1
102
RTVSPropertyOp7
 70
     1
102
RTVSPropertyOp8
 70
     1
102
RTVSPropertyOp9
 70
     1
102
RTVSPropertyOp10
 70
     1
102
RTVSPropertyOp11
 70
     1
102
RTVSPropertyOp12
 70
     1
102
RTVSPropertyOp13
 70
     1
102
RTVSPropertyOp14
 70
     1
102
RTVSPropertyOp15
 70
     1
102
RTVSPropertyOp16
 70
     1
102
RTVSPropertyOp17
 70
     1
102
RTVSPropertyOp18
 70
     1
102
RTVSPropertyOp19
 70
     1
102
RTVSPropertyOp20
 70
     1
102
RTVSPropertyOp21
 70
     1
102
RTVSPropertyOp22
 70
     1
102
RTVSPropertyOp23
 70
     1
102
RTVSPropertyOp24
 70
     1
102
RTVSPropertyOp25
 70
     1
102
RTVSPropertyOp26
 70
     1
102
RTVSPropertyOp27
 70
     1
102
RTVSPropertyOp28
 70
     1
102
RTVSPropertyOp29
 70
     1
102
RTVSPropertyOp30
 70
     1
102
RTVSPropertyOp31
 70
     1
102
RTVSPropertyOp32
 70
     1
  0
XRECORD
  5
2A4
102
{ACAD_REACTORS
330
2A3
102
}
330
2A3
100
AcDbXrecord
280
     1
102
RTVSPropertyOp0
 70
     1
102
RTVSPropertyOp1
 70
     1
102
RTVSPropertyOp2
 70
     1
102
RTVSPropertyOp3
 70
     1
102
RTVSPropertyOp4
 70
     1
102
RTVSPropertyOp5
 70
     1
102
RTVSPropertyOp6
 70
     1
102
RTVSPropertyOp7
 70
     1
102
RTVSPropertyOp8
 70
     1
102
RTVSPropertyOp9
 70
     1
102
RTVSPropertyOp10
 70
     1
102
RTVSPropertyOp11
 70
     1
102
RTVSPropertyOp12
 70
     1
102
RTVSPropertyOp13
 70
     1
102
RTVSPropertyOp14
 70
     1
102
RTVSPropertyOp15
 70
     1
102
RTVSPropertyOp16
 70
     1
102
RTVSPropertyOp17
 70
     1
102
RTVSPropertyOp18
 70
     1
102
RTVSPropertyOp19
 70
     1
102
RTVSPropertyOp20
 70
     1
102
RTVSPropertyOp21
 70
     1
102
RTVSPropertyOp22
 70
     1
102
RTVSPropertyOp23
 70
     1
102
RTVSPropertyOp24
 70
     1
102
RTVSPropertyOp25
 70
     1
102
RTVSPropertyOp26
 70
     1
102
RTVSPropertyOp27
 70
     1
102
RTVSPropertyOp28
 70
     1
102
RTVSPropertyOp29
 70
     1
102
RTVSPropertyOp30
 70
     1
102
RTVSPropertyOp31
 70
     1
102
RTVSPropertyOp32
 70
     1
  0
XRECORD
  5
2AC
102
{ACAD_REACTORS
330
2AB
102
}
330
2AB
100
AcDbXrecord
280
     1
102
RTVSPropertyOp0
 70
     1
102
RTVSPropertyOp1
 70
     1
102
RTVSPropertyOp2
 70
     1
102
RTVSPropertyOp3
 70
     1
102
RTVSPropertyOp4
 70
     1
102
RTVSPropertyOp5
 70
     1
102
RTVSPropertyOp6
 70
     1
102
RTVSPropertyOp7
 70
     1
102
RTVSPropertyOp8
 70
     1
102
RTVSPropertyOp9
 70
     1
102
RTVSPropertyOp10
 70
     1
102
RTVSPropertyOp11
 70
     1
102
RTVSPropertyOp12
 70
     1
102
RTVSPropertyOp13
 70
     1
102
RTVSPropertyOp14
 70
     1
102
RTVSPropertyOp15
 70
     1
102
RTVSPropertyOp16
 70
     1
102
RTVSPropertyOp17
 70
     1
102
RTVSPropertyOp18
 70
     1
102
RTVSPropertyOp19
 70
     1
102
RTVSPropertyOp20
 70
     1
102
RTVSPropertyOp21
 70
     1
102
RTVSPropertyOp22
 70
     1
102
RTVSPropertyOp23
 70
     1
102
RTVSPropertyOp24
 70
     1
102
RTVSPropertyOp25
 70
     1
102
RTVSPropertyOp26
 70
     1
102
RTVSPropertyOp27
 70
     1
102
RTVSPropertyOp28
 70
     1
102
RTVSPropertyOp29
 70
     1
102
RTVSPropertyOp30
 70
     1
102
RTVSPropertyOp31
 70
     1
102
RTVSPropertyOp32
 70
     1
  0
XRECORD
  5
2A0
102
{ACAD_REACTORS
330
29F
102
}
330
29F
100
AcDbXrecord
280
     1
102
RTVSPropertyOp0
 70
     1
102
RTVSPropertyOp1
 70
     1
102
RTVSPropertyOp2
 70
     1
102
RTVSPropertyOp3
 70
     1
102
RTVSPropertyOp4
 70
     1
102
RTVSPropertyOp5
 70
     1
102
RTVSPropertyOp6
 70
     1
102
RTVSPropertyOp7
 70
     1
102
RTVSPropertyOp8
 70
     1
102
RTVSPropertyOp9
 70
     1
102
RTVSPropertyOp10
 70
     1
102
RTVSPropertyOp11
 70
     1
102
RTVSPropertyOp12
 70
     1
102
RTVSPropertyOp13
 70
     1
102
RTVSPropertyOp14
 70
     1
102
RTVSPropertyOp15
 70
     1
102
RTVSPropertyOp16
 70
     1
102
RTVSPropertyOp17
 70
     1
102
RTVSPropertyOp18
 70
     1
102
RTVSPropertyOp19
 70
     1
102
RTVSPropertyOp20
 70
     1
102
RTVSPropertyOp21
 70
     1
102
RTVSPropertyOp22
 70
     1
102
RTVSPropertyOp23
 70
     1
102
RTVSPropertyOp24
 70
     1
102
RTVSPropertyOp25
 70
     1
102
RTVSPropertyOp26
 70
     1
102
RTVSPropertyOp27
 70
     1
102
RTVSPropertyOp28
 70
     1
102
RTVSPropertyOp29
 70
     1
102
RTVSPropertyOp30
 70
     1
102
RTVSPropertyOp31
 70
     1
102
RTVSPropertyOp32
 70
     1
  0
XRECORD
  5
2A2
102
{ACAD_REACTORS
330
2A1
102
}
330
2A1
100
AcDbXrecord
280
     1
102
RTVSPropertyOp0
 70
     1
102
RTVSPropertyOp1
 70
     1
102
RTVSPropertyOp2
 70
     1
102
RTVSPropertyOp3
 70
     1
102
RTVSPropertyOp4
 70
     1
102
RTVSPropertyOp5
 70
     1
102
RTVSPropertyOp6
 70
     1
102
RTVSPropertyOp7
 70
     1
102
RTVSPropertyOp8
 70
     1
102
RTVSPropertyOp9
 70
     1
102
RTVSPropertyOp10
 70
     1
102
RTVSPropertyOp11
 70
     1
102
RTVSPropertyOp12
 70
     1
102
RTVSPropertyOp13
 70
     1
102
RTVSPropertyOp14
 70
     1
102
RTVSPropertyOp15
 70
     1
102
RTVSPropertyOp16
 70
     1
102
RTVSPropertyOp17
 70
     1
102
RTVSPropertyOp18
 70
     1
102
RTVSPropertyOp19
 70
     1
102
RTVSPropertyOp20
 70
     1
102
RTVSPropertyOp21
 70
     1
102
RTVSPropertyOp22
 70
     1
102
RTVSPropertyOp23
 70
     1
102
RTVSPropertyOp24
 70
     1
102
RTVSPropertyOp25
 70
     1
102
RTVSPropertyOp26
 70
     1
102
RTVSPropertyOp27
 70
     1
102
RTVSPropertyOp28
 70
     1
102
RTVSPropertyOp29
 70
     1
102
RTVSPropertyOp30
 70
     1
102
RTVSPropertyOp31
 70
     1
102
RTVSPropertyOp32
 70
     1
  0
XRECORD
  5
2AA
102
{ACAD_REACTORS
330
2A9
102
}
330
2A9
100
AcDbXrecord
280
     1
102
RTVSPropertyOp0
 70
     1
102
RTVSPropertyOp1
 70
     1
102
RTVSPropertyOp2
 70
     1
102
RTVSPropertyOp3
 70
     1
102
RTVSPropertyOp4
 70
     1
102
RTVSPropertyOp5
 70
     1
102
RTVSPropertyOp6
 70
     1
102
RTVSPropertyOp7
 70
     1
102
RTVSPropertyOp8
 70
     1
102
RTVSPropertyOp9
 70
     1
102
RTVSPropertyOp10
 70
     1
102
RTVSPropertyOp11
 70
     1
102
RTVSPropertyOp12
 70
     1
102
RTVSPropertyOp13
 70
     1
102
RTVSPropertyOp14
 70
     1
102
RTVSPropertyOp15
 70
     1
102
RTVSPropertyOp16
 70
     1
102
RTVSPropertyOp17
 70
     1
102
RTVSPropertyOp18
 70
     1
102
RTVSPropertyOp19
 70
     1
102
RTVSPropertyOp20
 70
     1
102
RTVSPropertyOp21
 70
     1
102
RTVSPropertyOp22
 70
     1
102
RTVSPropertyOp23
 70
     1
102
RTVSPropertyOp24
 70
     1
102
RTVSPropertyOp25
 70
     1
102
RTVSPropertyOp26
 70
     1
102
RTVSPropertyOp27
 70
     1
102
RTVSPropertyOp28
 70
     1
102
RTVSPropertyOp29
 70
     1
102
RTVSPropertyOp30
 70
     1
102
RTVSPropertyOp31
 70
     1
102
RTVSPropertyOp32
 70
     1
  0
XRECORD
  5
28E
102
{ACAD_REACTORS
330
28D
102
}
330
28D
100
AcDbXrecord
280
     1
102
RTVSPropertyOp0
 70
     1
102
RTVSPropertyOp1
 70
     1
102
RTVSPropertyOp2
 70
     1
102
RTVSPropertyOp3
 70
     1
102
RTVSPropertyOp4
 70
     1
102
RTVSPropertyOp5
 70
     1
102
RTVSPropertyOp6
 70
     1
102
RTVSPropertyOp7
 70
     1
102
RTVSPropertyOp8
 70
     1
102
RTVSPropertyOp9
 70
     1
102
RTVSPropertyOp10
 70
     1
102
RTVSPropertyOp11
 70
     1
102
RTVSPropertyOp12
 70
     1
102
RTVSPropertyOp13
 70
     1
102
RTVSPropertyOp14
 70
     1
102
RTVSPropertyOp15
 70
     1
102
RTVSPropertyOp16
 70
     1
102
RTVSPropertyOp17
 70
     1
102
RTVSPropertyOp18
 70
     1
102
RTVSPropertyOp19
 70
     1
102
RTVSPropertyOp20
 70
     1
102
RTVSPropertyOp21
 70
     1
102
RTVSPropertyOp22
 70
     1
102
RTVSPropertyOp23
 70
     1
102
RTVSPropertyOp24
 70
     1
102
RTVSPropertyOp25
 70
     1
102
RTVSPropertyOp26
 70
     1
102
RTVSPropertyOp27
 70
     1
102
RTVSPropertyOp28
 70
     1
102
RTVSPropertyOp29
 70
     1
102
RTVSPropertyOp30
 70
     1
102
RTVSPropertyOp31
 70
     1
102
RTVSPropertyOp32
 70
     1
  0
XRECORD
  5
290
102
{ACAD_REACTORS
330
28F
102
}
330
28F
100
AcDbXrecord
280
     1
102
RTVSPropertyOp0
 70
     1
102
RTVSPropertyOp1
 70
     1
102
RTVSPropertyOp2
 70
     1
102
RTVSPropertyOp3
 70
     1
102
RTVSPropertyOp4
 70
     1
102
RTVSPropertyOp5
 70
     1
102
RTVSPropertyOp6
 70
     1
102
RTVSPropertyOp7
 70
     1
102
RTVSPropertyOp8
 70
     1
102
RTVSPropertyOp9
 70
     1
102
RTVSPropertyOp10
 70
     1
102
RTVSPropertyOp11
 70
     1
102
RTVSPropertyOp12
 70
     1
102
RTVSPropertyOp13
 70
     1
102
RTVSPropertyOp14
 70
     1
102
RTVSPropertyOp15
 70
     1
102
RTVSPropertyOp16
 70
     1
102
RTVSPropertyOp17
 70
     1
102
RTVSPropertyOp18
 70
     1
102
RTVSPropertyOp19
 70
     1
102
RTVSPropertyOp20
 70
     1
102
RTVSPropertyOp21
 70
     1
102
RTVSPropertyOp22
 70
     1
102
RTVSPropertyOp23
 70
     1
102
RTVSPropertyOp24
 70
     1
102
RTVSPropertyOp25
 70
     1
102
RTVSPropertyOp26
 70
     1
102
RTVSPropertyOp27
 70
     1
102
RTVSPropertyOp28
 70
     1
102
RTVSPropertyOp29
 70
     1
102
RTVSPropertyOp30
 70
     1
102
RTVSPropertyOp31
 70
     1
102
RTVSPropertyOp32
 70
     1
  0
XRECORD
  5
292
102
{ACAD_REACTORS
330
291
102
}
330
291
100
AcDbXrecord
280
     1
102
RTVSPropertyOp0
 70
     1
102
RTVSPropertyOp1
 70
     1
102
RTVSPropertyOp2
 70
     1
102
RTVSPropertyOp3
 70
     1
102
RTVSPropertyOp4
 70
     1
102
RTVSPropertyOp5
 70
     1
102
RTVSPropertyOp6
 70
     1
102
RTVSPropertyOp7
 70
     1
102
RTVSPropertyOp8
 70
     1
102
RTVSPropertyOp9
 70
     1
102
RTVSPropertyOp10
 70
     1
102
RTVSPropertyOp11
 70
     1
102
RTVSPropertyOp12
 70
     1
102
RTVSPropertyOp13
 70
     1
102
RTVSPropertyOp14
 70
     1
102
RTVSPropertyOp15
 70
     1
102
RTVSPropertyOp16
 70
     1
102
RTVSPropertyOp17
 70
     1
102
RTVSPropertyOp18
 70
     1
102
RTVSPropertyOp19
 70
     1
102
RTVSPropertyOp20
 70
     1
102
RTVSPropertyOp21
 70
     1
102
RTVSPropertyOp22
 70
     1
102
RTVSPropertyOp23
 70
     1
102
RTVSPropertyOp24
 70
     1
102
RTVSPropertyOp25
 70
     1
102
RTVSPropertyOp26
 70
     1
102
RTVSPropertyOp27
 70
     1
102
RTVSPropertyOp28
 70
     1
102
RTVSPropertyOp29
 70
     1
102
RTVSPropertyOp30
 70
     1
102
RTVSPropertyOp31
 70
     1
102
RTVSPropertyOp32
 70
     1
  0
XRECORD
  5
294
102
{ACAD_REACTORS
330
293
102
}
330
293
100
AcDbXrecord
280
     1
102
RTVSPropertyOp0
 70
     1
102
RTVSPropertyOp1
 70
     1
102
RTVSPropertyOp2
 70
     1
102
RTVSPropertyOp3
 70
     1
102
RTVSPropertyOp4
 70
     1
102
RTVSPropertyOp5
 70
     1
102
RTVSPropertyOp6
 70
     1
102
RTVSPropertyOp7
 70
     1
102
RTVSPropertyOp8
 70
     1
102
RTVSPropertyOp9
 70
     1
102
RTVSPropertyOp10
 70
     1
102
RTVSPropertyOp11
 70
     1
102
RTVSPropertyOp12
 70
     1
102
RTVSPropertyOp13
 70
     1
102
RTVSPropertyOp14
 70
     1
102
RTVSPropertyOp15
 70
     1
102
RTVSPropertyOp16
 70
     1
102
RTVSPropertyOp17
 70
     1
102
RTVSPropertyOp18
 70
     1
102
RTVSPropertyOp19
 70
     1
102
RTVSPropertyOp20
 70
     1
102
RTVSPropertyOp21
 70
     1
102
RTVSPropertyOp22
 70
     1
102
RTVSPropertyOp23
 70
     1
102
RTVSPropertyOp24
 70
     1
102
RTVSPropertyOp25
 70
     1
102
RTVSPropertyOp26
 70
     1
102
RTVSPropertyOp27
 70
     1
102
RTVSPropertyOp28
 70
     1
102
RTVSPropertyOp29
 70
     1
102
RTVSPropertyOp30
 70
     1
102
RTVSPropertyOp31
 70
     1
102
RTVSPropertyOp32
 70
     1
  0
XRECORD
  5
2A8
102
{ACAD_REACTORS
330
2A7
102
}
330
2A7
100
AcDbXrecord
280
     1
102
RTVSPropertyOp0
 70
     1
102
RTVSPropertyOp1
 70
     1
102
RTVSPropertyOp2
 70
     1
102
RTVSPropertyOp3
 70
     1
102
RTVSPropertyOp4
 70
     1
102
RTVSPropertyOp5
 70
     1
102
RTVSPropertyOp6
 70
     1
102
RTVSPropertyOp7
 70
     1
102
RTVSPropertyOp8
 70
     1
102
RTVSPropertyOp9
 70
     1
102
RTVSPropertyOp10
 70
     1
102
RTVSPropertyOp11
 70
     1
102
RTVSPropertyOp12
 70
     1
102
RTVSPropertyOp13
 70
     1
102
RTVSPropertyOp14
 70
     1
102
RTVSPropertyOp15
 70
     1
102
RTVSPropertyOp16
 70
     1
102
RTVSPropertyOp17
 70
     1
102
RTVSPropertyOp18
 70
     1
102
RTVSPropertyOp19
 70
     1
102
RTVSPropertyOp20
 70
     1
102
RTVSPropertyOp21
 70
     1
102
RTVSPropertyOp22
 70
     1
102
RTVSPropertyOp23
 70
     1
102
RTVSPropertyOp24
 70
     1
102
RTVSPropertyOp25
 70
     1
102
RTVSPropertyOp26
 70
     1
102
RTVSPropertyOp27
 70
     1
102
RTVSPropertyOp28
 70
     1
102
RTVSPropertyOp29
 70
     1
102
RTVSPropertyOp30
 70
     1
102
RTVSPropertyOp31
 70
     1
102
RTVSPropertyOp32
 70
     1
  0
XRECORD
  5
29E
102
{ACAD_REACTORS
330
29D
102
}
330
29D
100
AcDbXrecord
280
     1
102
RTVSPropertyOp0
 70
     1
102
RTVSPropertyOp1
 70
     1
102
RTVSPropertyOp2
 70
     1
102
RTVSPropertyOp3
 70
     1
102
RTVSPropertyOp4
 70
     1
102
RTVSPropertyOp5
 70
     1
102
RTVSPropertyOp6
 70
     1
102
RTVSPropertyOp7
 70
     1
102
RTVSPropertyOp8
 70
     1
102
RTVSPropertyOp9
 70
     1
102
RTVSPropertyOp10
 70
     1
102
RTVSPropertyOp11
 70
     1
102
RTVSPropertyOp12
 70
     1
102
RTVSPropertyOp13
 70
     1
102
RTVSPropertyOp14
 70
     1
102
RTVSPropertyOp15
 70
     1
102
RTVSPropertyOp16
 70
     1
102
RTVSPropertyOp17
 70
     1
102
RTVSPropertyOp18
 70
     1
102
RTVSPropertyOp19
 70
     1
102
RTVSPropertyOp20
 70
     1
102
RTVSPropertyOp21
 70
     1
102
RTVSPropertyOp22
 70
     1
102
RTVSPropertyOp23
 70
     1
102
RTVSPropertyOp24
 70
     1
102
RTVSPropertyOp25
 70
     1
102
RTVSPropertyOp26
 70
     1
102
RTVSPropertyOp27
 70
     1
102
RTVSPropertyOp28
 70
     1
102
RTVSPropertyOp29
 70
     1
102
RTVSPropertyOp30
 70
     1
102
RTVSPropertyOp31
 70
     1
102
RTVSPropertyOp32
 70
     1
  0
XRECORD
  5
2A6
102
{ACAD_REACTORS
330
2A5
102
}
330
2A5
100
AcDbXrecord
280
     1
102
RTVSPropertyOp0
 70
     1
102
RTVSPropertyOp1
 70
     1
102
RTVSPropertyOp2
 70
     1
102
RTVSPropertyOp3
 70
     1
102
RTVSPropertyOp4
 70
     1
102
RTVSPropertyOp5
 70
     1
102
RTVSPropertyOp6
 70
     1
102
RTVSPropertyOp7
 70
     1
102
RTVSPropertyOp8
 70
     1
102
RTVSPropertyOp9
 70
     1
102
RTVSPropertyOp10
 70
     1
102
RTVSPropertyOp11
 70
     1
102
RTVSPropertyOp12
 70
     1
102
RTVSPropertyOp13
 70
     1
102
RTVSPropertyOp14
 70
     1
102
RTVSPropertyOp15
 70
     1
102
RTVSPropertyOp16
 70
     1
102
RTVSPropertyOp17
 70
     1
102
RTVSPropertyOp18
 70
     1
102
RTVSPropertyOp19
 70
     1
102
RTVSPropertyOp20
 70
     1
102
RTVSPropertyOp21
 70
     1
102
RTVSPropertyOp22
 70
     1
102
RTVSPropertyOp23
 70
     1
102
RTVSPropertyOp24
 70
     1
102
RTVSPropertyOp25
 70
     1
102
RTVSPropertyOp26
 70
     1
102
RTVSPropertyOp27
 70
     1
102
RTVSPropertyOp28
 70
     1
102
RTVSPropertyOp29
 70
     1
102
RTVSPropertyOp30
 70
     1
102
RTVSPropertyOp31
 70
     1
102
RTVSPropertyOp32
 70
     1
  0
ENDSEC
  0
EOF
